<?xml version="1.0" standalone="no"?>
<!DOCTYPE svg PUBLIC "-//W3C//DTD SVG 1.1//EN" "http://www.w3.org/Graphics/SVG/1.1/DTD/svg11.dtd">
<svg xmlns="http://www.w3.org/2000/svg">
<metadata>Generated by Fontastic.me</metadata>
<defs>
<font id="fa6-light-ui" horiz-adv-x="512">
<font-face font-family="fa6-light-ui" units-per-em="512" ascent="480" descent="-32"/>
<missing-glyph horiz-adv-x="512" />

<glyph glyph-name="address-card" unicode="&#97;" d="M455 427c16 0 29-13 29-29l0-284c0-16-13-29-29-29l-398 0c-16 0-29 13-29 29l0 284c0 16 13 29 29 29z m-398 28c-31 0-57-25-57-57l0-284c0-32 26-57 57-57l398 0c31 0 57 25 57 57l0 284c0 32-26 57-57 57z m85-142c0 16 13 28 29 28 15 0 28-12 28-28 0-16-13-29-28-29-16 0-29 13-29 29z m86 0c0 31-26 57-57 57-32 0-57-26-57-57 0-32 25-57 57-57 31 0 57 25 57 57z m-128-157c0 24 19 43 42 43l57 0c24 0 43-19 43-43 0-7 6-14 14-14 8 0 14 7 14 14 0 40-32 72-71 72l-57 0c-39 0-71-32-71-72 0-7 7-14 14-14 8 0 15 7 15 14z m213 185c-8 0-14-6-14-14 0-8 6-14 14-14l114 0c7 0 14 6 14 14 0 8-7 14-14 14z m0-57c-8 0-14-6-14-14 0-8 6-14 14-14l114 0c7 0 14 6 14 14 0 8-7 14-14 14z m0-56c-8 0-14-7-14-15 0-7 6-14 14-14l114 0c7 0 14 7 14 14 0 8-7 15-14 15z"/>
<glyph glyph-name="angle-down" unicode="&#98;" d="M245 149c6-7 16-7 22 0l160 160c7 6 7 16 0 22-6 6-16 6-22 0l-149-148-149 148c-6 6-16 6-22 0-6-6-6-16 0-22z"/>
<glyph glyph-name="angle-left" unicode="&#99;" d="M149 245c-6 6-6 16 0 22l160 160c6 6 16 6 22 0 7-6 7-16 0-22l-148-149 148-149c7-6 7-16 0-22-6-7-16-7-22 0z"/>
<glyph glyph-name="angle-right" unicode="&#100;" d="M363 267c7-6 7-16 0-22l-160-160c-6-7-16-7-22 0-6 6-6 16 0 22l148 149-148 149c-6 6-6 16 0 22 6 6 16 6 22 0z"/>
<glyph glyph-name="angle-up" unicode="&#101;" d="M245 363c6 6 16 6 22 0l160-160c7-6 7-16 0-22-6-7-16-7-22 0l-149 148-149-148c-6-7-16-7-22 0-6 6-6 16 0 22z"/>
<glyph glyph-name="angles-up-down" unicode="&#102;" d="M266 492c-6 5-14 5-20 0l-160-128c-7-5-8-15-2-22 5-7 15-8 22-3l150 120 150-120c7-5 17-4 23 3 5 7 4 17-3 22z m160-345c7 6 8 16 3 23-6 7-16 8-23 2l-150-120-150 120c-7 6-17 5-22-2-6-7-5-17 2-23l160-128c6-4 14-4 20 0z"/>
<glyph glyph-name="arrow-down" unicode="&#103;" d="M245 37c6-7 16-7 22 0l176 176c7 6 7 16 0 22-6 6-16 6-22 0l-149-148 0 377c0 9-7 16-16 16-9 0-16-7-16-16l0-377-149 148c-6 6-16 6-22 0-6-6-6-16 0-22z"/>
<glyph glyph-name="arrow-down-a-z" unicode="&#104;" d="M238 146l-86-85c-5-5-14-5-20 0l-85 85c-6 6-6 15 0 20 5 6 14 6 20 0l61-61 0 336c0 8 6 14 14 14 8 0 14-6 14-14l0-336 62 61c5 6 14 6 20 0 5-5 5-14 0-20z m144 301l57-113c0 0 0-1 1-1l14-28c3-7 0-15-7-19-7-4-15-1-19 6l-10 21-96 0-11-21c-3-7-12-10-19-6-7 3-10 12-6 19l14 28c0 0 0 1 0 1l57 113c2 5 7 8 13 8 5 0 10-3 12-8z m-12-38l-34-68 68 0z m-57-181l114 0c5 0 10-4 12-9 3-5 2-10-1-15l-96-119 85 0c7 0 14-6 14-14 0-8-7-14-14-14l-114 0c-6 0-11 3-13 8-2 5-2 11 2 15l95 119-84 0c-8 0-14 7-14 14 0 8 6 15 14 15z"/>
<glyph glyph-name="arrow-down-long" unicode="&#105;" d="M245 5c6-7 16-7 22 0l144 144c7 6 7 16 0 22-6 6-16 6-22 0l-117-116 0 441c0 9-7 16-16 16-9 0-16-7-16-16l0-441-117 116c-6 6-16 6-22 0-6-6-6-16 0-22z"/>
<glyph glyph-name="arrow-down-to-line" unicode="&#106;" d="M80 32c-9 0-16 7-16 16 0 9 7 16 16 16l352 0c9 0 16-7 16-16 0-9-7-16-16-16z m187 101c-6-7-16-7-22 0l-128 128c-6 6-6 16 0 22 6 6 16 6 22 0l101-100 0 281c0 9 7 16 16 16 9 0 16-7 16-16l0-281 101 100c6 6 16 6 22 0 7-6 7-16 0-22z"/>
<glyph glyph-name="arrow-down-z-a" unicode="&#107;" d="M238 146l-86-85c-5-5-14-5-20 0l-85 85c-6 6-6 15 0 20 5 6 14 6 20 0l61-61 0 336c0 8 6 14 14 14 8 0 14-6 14-14l0-336 62 61c5 6 14 6 20 0 5-5 5-14 0-20z m75 309l114 0c5 0 10-3 12-8 3-5 2-11-1-15l-96-119 85 0c7 0 14-7 14-14 0-8-7-15-14-15l-114 0c-6 0-11 4-13 9-2 5-2 10 2 15l95 119-84 0c-8 0-14 6-14 14 0 8 6 14 14 14z m57-227c5 0 10-3 12-8l57-114c0 0 0 0 1 0l14-28c3-8 0-16-7-20-7-3-15 0-19 7l-10 20-96 0-11-20c-3-7-12-10-19-7-7 4-10 12-6 19l14 29c0 0 0 0 0 0l57 114c2 4 7 7 13 7z m-34-114l68 0-34 68z"/>
<glyph glyph-name="arrow-left" unicode="&#108;" d="M37 267c-6-6-6-16 0-22l176-176c6-7 16-7 22 0 7 6 7 16 0 22l-148 149 377 0c9 0 16 7 16 16 0 9-7 16-16 16l-377 0 148 149c7 6 7 16 0 22-6 6-16 6-22 0z"/>
<glyph glyph-name="arrow-left-long" unicode="&#109;" d="M5 267c-7-6-7-16 0-22l144-144c6-7 16-7 22 0 7 6 7 16 0 22l-116 117 441 0c9 0 16 7 16 16 0 9-7 16-16 16l-441 0 116 117c7 6 7 16 0 22-6 6-16 6-22 0z"/>
<glyph glyph-name="arrow-right" unicode="&#110;" d="M475 245c7 6 7 16 0 22l-176 176c-6 6-16 6-22 0-6-6-6-16 0-22l148-149-377 0c-9 0-16-7-16-16 0-9 7-16 16-16l377 0-148-149c-6-6-6-16 0-22 6-7 16-7 22 0z"/>
<glyph glyph-name="arrow-right-from-bracket" unicode="&#111;" d="M507 245c7 6 7 16 0 22l-128 128c-6 6-16 6-22 0-6-6-6-16 0-22l100-101-281 0c-9 0-16-7-16-16 0-9 7-16 16-16l281 0-100-101c-6-6-6-16 0-22 6-7 16-7 22 0z m-331 203c9 0 16 7 16 16 0 9-7 16-16 16l-96 0c-44 0-80-36-80-80l0-288c0-44 36-80 80-80l96 0c9 0 16 7 16 16 0 9-7 16-16 16l-96 0c-26 0-48 21-48 48l0 288c0 26 22 48 48 48z"/>
<glyph glyph-name="arrow-right-long" unicode="&#112;" d="M507 245c7 6 7 16 0 22l-144 144c-6 6-16 6-22 0-6-6-6-16 0-22l116-117-441 0c-9 0-16-7-16-16 0-9 7-16 16-16l441 0-116-117c-6-6-6-16 0-22 6-7 16-7 22 0z"/>
<glyph glyph-name="arrow-right-to-bracket" unicode="&#113;" d="M347 245c7 6 7 16 0 22l-128 128c-6 6-16 6-22 0-6-6-6-16 0-22l100-101-281 0c-9 0-16-7-16-16 0-9 7-16 16-16l281 0-100-101c-6-6-6-16 0-22 6-7 16-7 22 0z m-11-181c-9 0-16-7-16-16 0-9 7-16 16-16l96 0c44 0 80 36 80 80l0 288c0 44-36 80-80 80l-96 0c-9 0-16-7-16-16 0-9 7-16 16-16l96 0c27 0 48-22 48-48l0-288c0-27-21-48-48-48z"/>
<glyph glyph-name="arrow-up" unicode="&#114;" d="M267 475c-6 6-16 6-22 0l-176-176c-6-6-6-16 0-22 6-7 16-7 22 0l149 148 0-377c0-9 7-16 16-16 9 0 16 7 16 16l0 377 149-148c6-7 16-7 22 0 7 6 7 16 0 22z"/>
<glyph glyph-name="arrow-up-long" unicode="&#115;" d="M267 507c-6 7-16 7-22 0l-144-144c-6-6-6-16 0-22 6-7 16-7 22 0l117 116 0-441c0-9 7-16 16-16 9 0 16 7 16 16l0 441 117-116c6-7 16-7 22 0 7 6 7 16 0 22z"/>
<glyph glyph-name="arrow-up-right-from-square" unicode="&#116;" d="M336 512c-9 0-16-7-16-16 0-9 7-16 16-16l121 0-244-245c-6-6-6-16 0-22 6-7 16-7 22 0l245 244 0-121c0-9 7-16 16-16 9 0 16 7 16 16l0 160c0 9-7 16-16 16z m-272-32c-35 0-64-29-64-64l0-352c0-35 29-64 64-64l352 0c35 0 64 29 64 64l0 144c0 9-7 16-16 16-9 0-16-7-16-16l0-144c0-18-14-32-32-32l-352 0c-18 0-32 14-32 32l0 352c0 18 14 32 32 32l144 0c9 0 16 7 16 16 0 9-7 16-16 16z"/>
<glyph glyph-name="arrow-up-to-line" unicode="&#117;" d="M80 480c-9 0-16-7-16-16 0-9 7-16 16-16l352 0c9 0 16 7 16 16 0 9-7 16-16 16z m187-101c-6 6-16 6-22 0l-128-128c-6-6-6-16 0-22 6-7 16-7 22 0l101 100 0-281c0-9 7-16 16-16 9 0 16 7 16 16l0 281 101-100c6-7 16-7 22 0 7 6 7 16 0 22z"/>
<glyph glyph-name="arrows-rotate" unicode="&#118;" d="M69 301c21 84 97 147 187 147 71 0 133-39 166-96l-54 0c-9 0-16-7-16-16 0-9 7-16 16-16l96 0c9 0 16 7 16 16l0 96c0 9-7 16-16 16-9 0-16-7-16-16l0-61c-39 65-110 109-192 109-106 0-195-74-218-174-2-9 5-18 15-18 8 0 15 6 17 13z m374-91c-21-84-97-146-187-146-71 0-133 39-166 96l54 0c9 0 16 7 16 16 0 9-7 16-16 16l-96 0c-9 0-16-7-16-16l0-96c0-9 7-16 16-16 9 0 16 7 16 16l0 60c39-65 111-108 192-108 106 0 196 74 218 174 3 9-5 18-15 18-8 0-15-6-16-13z"/>
<glyph glyph-name="award" unicode="&#119;" d="M231 505c15 9 35 9 51 0l16-10c3-2 6-3 9-3l19 1c19 0 36-10 45-26l9-17c1-2 4-5 7-6l16-10c17-8 26-25 26-44l-1-19c0-3 1-6 3-9l10-17c9-15 9-35 0-51l-10-16c-2-3-3-6-3-9l1-20c0-18-9-35-26-44l-16-9c-3-2-6-4-7-7l-9-17c-9-16-26-25-45-25l-19 0c-3 1-6 0-9-2l-16-10c-16-10-36-10-51 0l-17 10c-3 2-6 3-9 2l-19 0c-19 0-36 9-45 25l-9 17c-1 3-4 5-7 7l-16 9c-16 9-26 26-26 44l1 20c0 3-1 6-3 9l-10 16c-9 16-9 36 0 51l10 17 14-9-14 9c2 3 3 6 3 9l-1 19c0 19 10 36 26 44l16 10c3 1 6 4 7 6l9 17c9 16 26 26 45 26l19-1c3 0 6 1 9 3z m34-28c-5 4-12 4-18 0l-16-10c-8-4-17-7-27-7l-19 1c-6 0-12-3-15-9l-10-17c-4-8-11-15-19-19l-17-10c-6-3-9-9-9-15l1-19c0-10-3-19-7-27l-10-16c-4-6-4-13 0-18l10-16c4-8 7-18 7-27l-1-19c0-7 3-13 9-16l17-9c8-4 15-11 19-19l10-17c3-6 9-9 15-9l19 1c9 0 19-3 27-8l16-10c6-3 12-3 18 0l16 10c8 5 18 8 27 8l19-1c7 0 12 3 15 9l10 17c4 8 11 15 19 19l17 9c6 4 9 9 9 16l-1 19c0 9 3 19 7 27l10 16c4 5 4 12 0 18l-10 16c-4 8-7 17-7 27l1 19c0 6-3 12-9 15l-17 10c-8 4-15 11-19 19l-10 17c-3 6-9 9-15 9l-19-1c-9 0-19 3-27 7l-16 10z m-9-101c-31 0-56-25-56-56 0-31 25-56 56-56 31 0 56 25 56 56 0 31-25 56-56 56z m88-56c0-49-39-88-88-88-49 0-88 39-88 88 0 49 39 88 88 88 49 0 88-39 88-88z m-279-250l42 98c1-2 3-5 6-11 4-7 10-14 15-19l-22-54 38 6c6 1 12-2 16-7l21-33 26 62c2-1 4-2 7-4 7-4 14-8 22-9l-37-89c-3-6-8-9-14-10-5 0-11 2-14 7l-33 49-56-8c-5-1-11 2-15 6-3 5-4 11-2 16z m248-60l-37 88c8 2 15 6 22 10 3 1 5 3 7 4l26-62 21 32c4 6 10 8 16 8l38-6-22 54c6 5 11 12 15 19 3 6 5 9 7 11l41-98c2-5 1-11-2-16-4-5-10-7-15-6l-56 8-33-49c-3-5-9-8-14-7-6 0-11 4-14 10z"/>
<glyph glyph-name="bag-shopping" unicode="&#120;" d="M192 416l0-32 128 0 0 32c0 35-29 64-64 64-35 0-64-29-64-64z m-32-64l-80 0c-9 0-16-7-16-16l0-240c0-35 29-64 64-64l256 0c35 0 64 29 64 64l0 240c0 9-7 16-16 16l-80 0 0-80c0-9-7-16-16-16-9 0-16 7-16 16l0 80-128 0 0-80c0-9-7-16-16-16-9 0-16 7-16 16z m0 32l0 32c0 53 43 96 96 96 53 0 96-43 96-96l0-32 80 0c27 0 48-22 48-48l0-240c0-53-43-96-96-96l-256 0c-53 0-96 43-96 96l0 240c0 26 22 48 48 48z"/>
<glyph glyph-name="bars" unicode="&#121;" d="M32 432c0 9 7 16 16 16l416 0c9 0 16-7 16-16 0-9-7-16-16-16l-416 0c-9 0-16 7-16 16z m0-160c0 9 7 16 16 16l416 0c9 0 16-7 16-16 0-9-7-16-16-16l-416 0c-9 0-16 7-16 16z m448-160c0-9-7-16-16-16l-416 0c-9 0-16 7-16 16 0 9 7 16 16 16l416 0c9 0 16-7 16-16z"/>
<glyph glyph-name="bell" unicode="&#122;" d="M240 496c0 9 7 16 16 16 9 0 16-7 16-16l0-17c81-8 144-76 144-159l0-29c0-44 17-86 48-117l3-3c8-8 13-19 13-31 0-24-20-44-44-44l-360 0c-24 0-44 20-44 44 0 12 5 23 13 32l3 2c31 31 48 73 48 117l0 29c0 83 63 151 144 159z m16-48c-71 0-128-57-128-128l0-29c0-52-21-102-58-139l-2-3c-3-2-4-5-4-9 0-7 6-12 12-12l360 0c7 0 12 5 12 12 0 4-1 7-4 9l-2 3c-37 37-58 87-58 139l0 29c0 71-57 128-128 128z m-30-395c4-12 16-21 30-21 14 0 26 9 30 21 3 9 12 13 21 10 8-3 12-12 9-20-8-25-32-43-60-43-28 0-52 18-60 43-3 8 1 17 9 20 9 3 18-1 21-10z"/>
<glyph glyph-name="calculator" unicode="&#65;" d="M416 352l0-288c0-18-14-32-32-32l-256 0c-18 0-32 14-32 32l0 288z m0 32l-320 0 0 64c0 18 14 32 32 32l256 0c18 0 32-14 32-32z m32 0l0 64c0 35-29 64-64 64l-256 0c-35 0-64-29-64-64l0-384c0-35 29-64 64-64l256 0c35 0 64 29 64 64z m-312-96c0-13 11-24 24-24 13 0 24 11 24 24 0 13-11 24-24 24-13 0-24-11-24-24z m24-72c-13 0-24-11-24-24 0-13 11-24 24-24 13 0 24 11 24 24 0 13-11 24-24 24z m72 72c0-13 11-24 24-24 13 0 24 11 24 24 0 13-11 24-24 24-13 0-24-11-24-24z m24-72c-13 0-24-11-24-24 0-13 11-24 24-24 13 0 24 11 24 24 0 13-11 24-24 24z m72 72c0-13 11-24 24-24 13 0 24 11 24 24 0 13-11 24-24 24-13 0-24-11-24-24z m24-72c-13 0-24-11-24-24 0-13 11-24 24-24 13 0 24 11 24 24 0 13-11 24-24 24z m-24-120c0-13 11-24 24-24 13 0 24 11 24 24 0 13-11 24-24 24-13 0-24-11-24-24z m-184 16c-9 0-16-7-16-16 0-9 7-16 16-16l128 0c9 0 16 7 16 16 0 9-7 16-16 16z"/>
<glyph glyph-name="calendar" unicode="&#66;" d="M144 512c9 0 16-7 16-16l0-48 192 0 0 48c0 9 7 16 16 16 9 0 16-7 16-16l0-48 32 0c35 0 64-29 64-64l0-320c0-35-29-64-64-64l-320 0c-35 0-64 29-64 64l0 320c0 35 29 64 64 64l32 0 0 48c0 9 7 16 16 16z m304-192l-384 0 0-256c0-18 14-32 32-32l320 0c18 0 32 14 32 32z m-32 96l-320 0c-18 0-32-14-32-32l0-32 384 0 0 32c0 18-14 32-32 32z"/>
<glyph glyph-name="calendar-day" unicode="&#67;" d="M160 496c0 9-7 16-16 16-9 0-16-7-16-16l0-48-32 0c-35 0-64-29-64-64l0-320c0-35 29-64 64-64l320 0c35 0 64 29 64 64l0 320c0 35-29 64-64 64l-32 0 0 48c0 9-7 16-16 16-9 0-16-7-16-16l0-48-192 0z m-96-176l384 0 0-256c0-18-14-32-32-32l-320 0c-18 0-32 14-32 32z m32 96l320 0c18 0 32-14 32-32l0-32-384 0 0 32c0 18 14 32 32 32z m40-160l80 0c4 0 8-4 8-8l0-80c0-4-4-8-8-8l-80 0c-4 0-8 4-8 8l0 80c0 4 4 8 8 8z m-40-8l0-80c0-22 18-40 40-40l80 0c22 0 40 18 40 40l0 80c0 22-18 40-40 40l-80 0c-22 0-40-18-40-40z"/>
<glyph glyph-name="calendar-days" unicode="&#68;" d="M144 512c9 0 16-7 16-16l0-48 192 0 0 48c0 9 7 16 16 16 9 0 16-7 16-16l0-48 32 0c35 0 64-29 64-64l0-320c0-35-29-64-64-64l-320 0c-35 0-64 29-64 64l0 320c0 35 29 64 64 64l32 0 0 48c0 9 7 16 16 16z m304-192l-104 0 0-72 104 0z m0-104l-104 0 0-80 104 0z m0-112l-104 0 0-72 72 0c18 0 32 14 32 32z m-136 32l0 80-112 0 0-80z m-112-32l0-72 112 0 0 72z m-32 32l0 80-104 0 0-80z m-104-32l0-40c0-18 14-32 32-32l72 0 0 72z m0 144l104 0 0 72-104 0z m136 0l112 0 0 72-112 0z m216 168l-320 0c-18 0-32-14-32-32l0-32 384 0 0 32c0 18-14 32-32 32z"/>
<glyph glyph-name="cart-minus" unicode="&#69;" d="M0 469c0 8 6 15 14 15l34 0c20 0 38-15 42-35l39-193 286 0c13 0 24 9 27 22l42 166c2 8 10 13 17 11 8-2 13-10 11-18l-42-166c-6-26-29-43-55-43l-280 0 7-35c3-13 14-22 28-22l271 0c8 0 14-7 14-15 0-7-6-14-14-14l-271 0c-27 0-50 19-56 46l-52 256c-2 6-7 11-14 11l-34 0c-8 0-14 7-14 14z m171-412c11 0 21 9 21 21 0 12-10 22-21 22-12 0-22-10-22-22 0-12 10-21 22-21z m0 71c27 0 49-22 49-50 0-27-22-50-49-50-28 0-50 23-50 50 0 28 22 50 50 50z m249-50c0 12-10 22-22 22-12 0-21-10-21-22 0-12 9-21 21-21 12 0 22 9 22 21z m-72 0c0 28 23 50 50 50 28 0 50-22 50-50 0-27-22-50-50-50-27 0-50 23-50 50z m-120 306l113 0c8 0 15-6 15-14 0-8-7-14-15-14l-113 0c-8 0-15 6-15 14 0 8 7 14 15 14z"/>
<glyph glyph-name="cart-plus" unicode="&#70;" d="M14 484c-8 0-14-7-14-15 0-7 6-14 14-14l34 0c7 0 13-5 14-11l52-256c6-27 29-46 56-46l271 0c8 0 14 7 14 14 0 8-6 15-14 15l-271 0c-14 0-25 9-28 22l-7 35 280 0c26 0 49 17 55 43l42 166c1 8-3 16-11 18-7 2-15-3-17-11l-42-166c-3-13-14-22-27-22l-286 0-39 193c-4 20-22 35-42 35z m135-406c0 12 10 22 22 22 11 0 21-10 21-22 0-12-10-21-21-21-12 0-22 9-22 21z m71 0c0 28-22 50-49 50-28 0-50-22-50-50 0-27 22-50 50-50 27 0 49 23 49 50z m178 22c12 0 22-10 22-22 0-12-10-21-22-21-12 0-21 9-21 21 0 12 9 22 21 22z m0-72c28 0 50 23 50 50 0 28-22 50-50 50-27 0-50-22-50-50 0-27 23-50 50-50z m-185 342c0-8 7-14 15-14l42 0 0-43c0-8 7-14 14-14 8 0 15 6 15 14l0 43 42 0c8 0 15 6 15 14 0 8-7 14-15 14l-42 0 0 43c0 7-7 14-15 14-7 0-14-7-14-14l0-43-42 0c-8 0-15-6-15-14z"/>
<glyph glyph-name="cart-shopping" unicode="&#71;" d="M14 484c-8 0-14-7-14-15 0-7 6-14 14-14l34 0c7 0 13-5 14-11l52-256c6-27 29-46 56-46l271 0c8 0 14 7 14 14 0 8-6 15-14 15l-271 0c-14 0-25 9-28 22l-7 35 280 0c26 0 49 17 55 43l37 149c5 18-9 35-27 35l-392 0c-6 17-22 29-40 29z m80-57l386 0-38-149c-3-13-14-22-27-22l-286 0z m55-349c0 12 10 22 22 22 11 0 21-10 21-22 0-12-10-21-21-21-12 0-22 9-22 21z m71 0c0 28-22 50-49 50-28 0-50-22-50-50 0-27 22-50 50-50 27 0 49 23 49 50z m178 22c12 0 22-10 22-22 0-12-10-21-22-21-12 0-21 9-21 21 0 12 9 22 21 22z m0-72c28 0 50 23 50 50 0 28-22 50-50 50-27 0-50-22-50-50 0-27 23-50 50-50z"/>
<glyph glyph-name="chart-bar" unicode="&#72;" d="M16 480c9 0 16-7 16-16l0-352c0-27 22-48 48-48l416 0c9 0 16-7 16-16 0-9-7-16-16-16l-416 0c-44 0-80 36-80 80l0 352c0 9 7 16 16 16z m112-112c0 9 7 16 16 16l224 0c9 0 16-7 16-16 0-9-7-16-16-16l-224 0c-9 0-16 7-16 16z m16-80l160 0c9 0 16-7 16-16 0-9-7-16-16-16l-160 0c-9 0-16 7-16 16 0 9 7 16 16 16z m0-96l288 0c9 0 16-7 16-16 0-9-7-16-16-16l-288 0c-9 0-16 7-16 16 0 9 7 16 16 16z"/>
<glyph glyph-name="chart-column" unicode="&#73;" d="M16 480c9 0 16-7 16-16l0-352c0-27 22-48 48-48l416 0c9 0 16-7 16-16 0-9-7-16-16-16l-416 0c-44 0-80 36-80 80l0 352c0 9 7 16 16 16z m128-224c9 0 16-7 16-16l0-96c0-9-7-16-16-16-9 0-16 7-16 16l0 96c0 9 7 16 16 16z m112 112l0-224c0-9-7-16-16-16-9 0-16 7-16 16l0 224c0 9 7 16 16 16 9 0 16-7 16-16z m80-48c9 0 16-7 16-16l0-160c0-9-7-16-16-16-9 0-16 7-16 16l0 160c0 9 7 16 16 16z m112 80l0-256c0-9-7-16-16-16-9 0-16 7-16 16l0 256c0 9 7 16 16 16 9 0 16-7 16-16z"/>
<glyph glyph-name="chart-line" unicode="&#74;" d="M32 464c0 9-7 16-16 16-9 0-16-7-16-16l0-352c0-44 36-80 80-80l416 0c9 0 16 7 16 16 0 9-7 16-16 16l-416 0c-26 0-48 21-48 48z m443-107c7 6 7 16 0 22-6 6-16 6-22 0l-133-132-85 84c-6 6-16 6-22 0l-112-112c-6-6-6-16 0-22 6-7 16-7 22 0l101 100 85-84c6-7 16-7 22 0z"/>
<glyph glyph-name="chart-mixed" unicode="&#75;" d="M508 475c6-7 5-17-1-23l-176-160c-7-6-16-5-22 1l-119 118-165-120c-7-5-17-4-22 4-5 7-4 17 4 22l176 128c6 5 15 4 20-2l118-117 164 150c7 6 17 5 23-1z m-428-395l0 64c0 9-7 16-16 16-9 0-16-7-16-16l0-64c0-9 7-16 16-16 9 0 16 7 16 16z m-16 112c27 0 48-22 48-48l0-64c0-27-21-48-48-48-26 0-48 21-48 48l0 64c0 26 22 48 48 48z m144 48c0 9-7 16-16 16-9 0-16-7-16-16l0-160c0-9 7-16 16-16 9 0 16 7 16 16z m-64 0c0 26 22 48 48 48 27 0 48-22 48-48l0-160c0-27-21-48-48-48-26 0-48 21-48 48z m192-160l0 96c0 9-7 16-16 16-9 0-16-7-16-16l0-96c0-9 7-16 16-16 9 0 16 7 16 16z m-16 144c27 0 48-22 48-48l0-96c0-27-21-48-48-48-26 0-48 21-48 48l0 96c0 26 22 48 48 48z m144 16c0 9-7 16-16 16-9 0-16-7-16-16l0-160c0-9 7-16 16-16 9 0 16 7 16 16z m-64 0c0 26 22 48 48 48 27 0 48-22 48-48l0-160c0-27-21-48-48-48-26 0-48 21-48 48z"/>
<glyph glyph-name="chart-pie" unicode="&#76;" d="M454 299l-155 0 0 155c83-6 149-72 155-155z m-170-29l186 0c7 0 13 6 14 13l0 1c0 110-90 200-200 200l-1 0c-7 0-13-7-13-14l0-186c0-7 7-14 14-14z m-77-63l127-126c-27-15-59-24-92-24-102 0-185 83-185 185 0 87 61 160 142 180l0-194c0-8 3-15 8-21z m5 246c-103-14-184-103-184-211 0-118 96-214 214-214 46 0 88 15 123 40 7 5 8 14 2 20l-139 140 0 211c0 9-7 15-16 14z m223-336l-82 82 126 0c-8-31-23-59-44-82z m75 95c1 9-5 16-14 16l-177 0c-13 0-19-16-10-25l117-117c5-5 13-5 18 0 35 32 59 77 66 126z"/>
<glyph glyph-name="chart-simple" unicode="&#77;" d="M272 448c9 0 16-7 16-16l0-352c0-9-7-16-16-16l-32 0c-9 0-16 7-16 16l0 352c0 9 7 16 16 16z m-32 32c-26 0-48-22-48-48l0-352c0-27 22-48 48-48l32 0c27 0 48 21 48 48l0 352c0 26-21 48-48 48z m-128-224c9 0 16-7 16-16l0-160c0-9-7-16-16-16l-32 0c-9 0-16 7-16 16l0 160c0 9 7 16 16 16z m-32 32c-26 0-48-22-48-48l0-160c0-27 22-48 48-48l32 0c27 0 48 21 48 48l0 160c0 26-21 48-48 48z m320 96l32 0c9 0 16-7 16-16l0-288c0-9-7-16-16-16l-32 0c-9 0-16 7-16 16l0 288c0 9 7 16 16 16z m-48-16l0-288c0-27 22-48 48-48l32 0c27 0 48 21 48 48l0 288c0 26-21 48-48 48l-32 0c-26 0-48-22-48-48z"/>
<glyph glyph-name="check" unicode="&#78;" d="M475 411c7-6 7-16 0-22l-272-272c-6-7-16-7-22 0l-144 144c-6 6-6 16 0 22 6 6 16 6 22 0l133-132 261 260c6 6 16 6 22 0z"/>
<glyph glyph-name="chevron-down" unicode="&#79;" d="M267 117c-6-7-16-7-22 0l-192 192c-6 6-6 16 0 22 6 6 16 6 22 0l181-180 181 180c6 6 16 6 22 0 7-6 7-16 0-22z"/>
<glyph glyph-name="chevron-left" unicode="&#80;" d="M117 245c-6 6-6 16 0 22l192 192c6 6 16 6 22 0 7-6 7-16 0-22l-180-181 180-181c7-6 7-16 0-22-6-7-16-7-22 0z"/>
<glyph glyph-name="chevron-right" unicode="&#81;" d="M395 267c7-6 7-16 0-22l-192-192c-6-7-16-7-22 0-6 6-6 16 0 22l180 181-180 181c-6 6-6 16 0 22 6 6 16 6 22 0z"/>
<glyph glyph-name="chevron-up" unicode="&#82;" d="M245 395c6 6 16 6 22 0l192-192c7-6 7-16 0-22-6-7-16-7-22 0l-181 180-181-180c-6-7-16-7-22 0-6 6-6 16 0 22z"/>
<glyph glyph-name="circle-arrow-down" unicode="&#83;" d="M256 480c-124 0-224-100-224-224 0-124 100-224 224-224 124 0 224 100 224 224 0 124-100 224-224 224z m0-480c-141 0-256 115-256 256 0 141 115 256 256 256 141 0 256-115 256-256 0-141-115-256-256-256z m107 229l-96-96c-6-7-16-7-22 0l-96 96c-6 6-6 16 0 22 6 6 16 6 22 0l69-68 0 185c0 9 7 16 16 16 9 0 16-7 16-16l0-185 69 68c6 6 16 6 22 0 7-6 7-16 0-22z"/>
<glyph glyph-name="circle-arrow-left" unicode="&#84;" d="M32 256c0 124 100 224 224 224 124 0 224-100 224-224 0-124-100-224-224-224-124 0-224 100-224 224z m480 0c0 141-115 256-256 256-141 0-256-115-256-256 0-141 115-256 256-256 141 0 256 115 256 256z m-283 107l-96-96c-6-6-6-16 0-22l96-96c6-7 16-7 22 0 7 6 7 16 0 22l-68 69 185 0c9 0 16 7 16 16 0 9-7 16-16 16l-185 0 68 69c7 6 7 16 0 22-6 6-16 6-22 0z"/>
<glyph glyph-name="circle-arrow-right" unicode="&#85;" d="M480 256c0-124-100-224-224-224-124 0-224 100-224 224 0 124 100 224 224 224 124 0 224-100 224-224z m-480 0c0-141 115-256 256-256 141 0 256 115 256 256 0 141-115 256-256 256-141 0-256-115-256-256z m283-107l96 96c7 6 7 16 0 22l-96 96c-6 6-16 6-22 0-6-6-6-16 0-22l68-69-185 0c-9 0-16-7-16-16 0-9 7-16 16-16l185 0-68-69c-6-6-6-16 0-22 6-7 16-7 22 0z"/>
<glyph glyph-name="circle-arrow-up" unicode="&#86;" d="M256 480c124 0 224-100 224-224 0-124-100-224-224-224-124 0-224 100-224 224 0 124 100 224 224 224z m0-480c141 0 256 115 256 256 0 141-115 256-256 256-141 0-256-115-256-256 0-141 115-256 256-256z m107 283l-96 96c-6 6-16 6-22 0l-96-96c-6-6-6-16 0-22 6-7 16-7 22 0l69 68 0-185c0-9 7-16 16-16 9 0 16 7 16 16l0 185 69-68c6-7 16-7 22 0 7 6 7 16 0 22z"/>
<glyph glyph-name="circle-check" unicode="&#87;" d="M256 480c124 0 224-100 224-224 0-124-100-224-224-224-124 0-224 100-224 224 0 124 100 224 224 224z m0-480c141 0 256 115 256 256 0 141-115 256-256 256-141 0-256-115-256-256 0-141 115-256 256-256z m107 309c7 6 7 16 0 22-6 6-16 6-22 0l-117-116-53 52c-6 6-16 6-22 0-6-6-6-16 0-22l64-64c6-7 16-7 22 0z"/>
<glyph glyph-name="circle-chevron-down" unicode="&#88;" d="M256 32c-124 0-224 100-224 224 0 124 100 224 224 224 124 0 224-100 224-224 0-124-100-224-224-224z m0 480c-141 0-256-115-256-256 0-141 115-256 256-256 141 0 256 115 256 256 0 141-115 256-256 256z m-123-235l112-112c6-7 16-7 22 0l112 112c7 6 7 16 0 22-6 6-16 6-22 0l-101-100-101 100c-6 6-16 6-22 0-6-6-6-16 0-22z"/>
<glyph glyph-name="circle-chevron-left" unicode="&#89;" d="M32 256c0 124 100 224 224 224 124 0 224-100 224-224 0-124-100-224-224-224-124 0-224 100-224 224z m480 0c0 141-115 256-256 256-141 0-256-115-256-256 0-141 115-256 256-256 141 0 256 115 256 256z m-235 123l-112-112c-6-6-6-16 0-22l112-112c6-7 16-7 22 0 7 6 7 16 0 22l-100 101 100 101c7 6 7 16 0 22-6 6-16 6-22 0z"/>
<glyph glyph-name="circle-chevron-right" unicode="&#90;" d="M480 256c0-124-100-224-224-224-124 0-224 100-224 224 0 124 100 224 224 224 124 0 224-100 224-224z m-480 0c0-141 115-256 256-256 141 0 256 115 256 256 0 141-115 256-256 256-141 0-256-115-256-256z m235-123l112 112c7 6 7 16 0 22l-112 112c-6 6-16 6-22 0-6-6-6-16 0-22l100-101-100-101c-6-6-6-16 0-22 6-7 16-7 22 0z"/>
<glyph glyph-name="circle-chevron-up" unicode="&#48;" d="M256 480c124 0 224-100 224-224 0-124-100-224-224-224-124 0-224 100-224 224 0 124 100 224 224 224z m0-480c141 0 256 115 256 256 0 141-115 256-256 256-141 0-256-115-256-256 0-141 115-256 256-256z m123 235l-112 112c-6 6-16 6-22 0l-112-112c-6-6-6-16 0-22 6-7 16-7 22 0l101 100 101-100c6-7 16-7 22 0 7 6 7 16 0 22z"/>
<glyph glyph-name="circle-exclamation" unicode="&#49;" d="M256 480c124 0 224-100 224-224 0-124-100-224-224-224-124 0-224 100-224 224 0 124 100 224 224 224z m0-480c141 0 256 115 256 256 0 141-115 256-256 256-141 0-256-115-256-256 0-141 115-256 256-256z m0 384c-9 0-16-7-16-16l0-128c0-9 7-16 16-16 9 0 16 7 16 16l0 128c0 9-7 16-16 16z m24-224c0 13-11 24-24 24-13 0-24-11-24-24 0-13 11-24 24-24 13 0 24 11 24 24z"/>
<glyph glyph-name="circle-info" unicode="&#50;" d="M256 480c124 0 224-100 224-224 0-124-100-224-224-224-124 0-224 100-224 224 0 124 100 224 224 224z m0-480c141 0 256 115 256 256 0 141-115 256-256 256-141 0-256-115-256-256 0-141 115-256 256-256z m-48 160c-9 0-16-7-16-16 0-9 7-16 16-16l96 0c9 0 16 7 16 16 0 9-7 16-16 16l-32 0 0 112c0 9-7 16-16 16l-40 0c-9 0-16-7-16-16 0-9 7-16 16-16l24 0 0-96z m48 168c13 0 24 11 24 24 0 13-11 24-24 24-13 0-24-11-24-24 0-13 11-24 24-24z"/>
<glyph glyph-name="circle-question" unicode="&#51;" d="M480 256c0 124-100 224-224 224-124 0-224-100-224-224 0-124 100-224 224-224 124 0 224 100 224 224z m-480 0c0 141 115 256 256 256 141 0 256-115 256-256 0-141-115-256-256-256-141 0-256 115-256 256z m169 86c6 25 28 42 54 42l57 0c36 0 64-29 64-64 0-24-13-47-35-58l-37-18 0-20c0-9-7-16-16-16-9 0-16 7-16 16l0 29c0 6 3 12 9 15l46 23c10 6 17 17 17 29 0 18-14 32-32 32l-57 0c-11 0-21-7-23-18l0 0c-3-9-11-14-20-12-8 2-14 11-11 20l0 0z m63-182c0 13 11 24 24 24 13 0 24-11 24-24 0-13-11-24-24-24-13 0-24 11-24 24z"/>
<glyph glyph-name="circle-user" unicode="&#52;" d="M412 95c-14 56-64 97-124 97l-64 0c-60 0-110-41-124-97-42 41-68 98-68 161 0 124 100 224 224 224 124 0 224-100 224-224 0-63-26-120-68-161z m-28-23c-36-25-80-40-128-40-47 0-91 15-128 40 4 49 46 88 96 88l64 0c50 0 92-39 96-88z m-128-72c141 0 256 115 256 256 0 141-115 256-256 256-141 0-256-115-256-256 0-141 115-256 256-256z m0 256c-27 0-48 21-48 48 0 27 21 48 48 48 27 0 48-21 48-48 0-27-21-48-48-48z m-80 48c0-44 36-80 80-80 44 0 80 36 80 80 0 44-36 80-80 80-44 0-80-36-80-80z"/>
<glyph glyph-name="circle-xmark" unicode="&#53;" d="M256 480c124 0 224-100 224-224 0-124-100-224-224-224-124 0-224 100-224 224 0 124 100 224 224 224z m0-480c141 0 256 115 256 256 0 141-115 256-256 256-141 0-256-115-256-256 0-141 115-256 256-256z m-75 331c-6-6-6-16 0-22l52-53-52-53c-6-6-6-16 0-22 6-7 16-7 22 0l53 52 53-52c6-7 16-7 22 0 7 6 7 16 0 22l-52 53 52 53c7 6 7 16 0 22-6 6-16 6-22 0l-53-52-53 52c-6 6-16 6-22 0z"/>
<glyph glyph-name="clock" unicode="&#54;" d="M480 256c0-124-100-224-224-224-124 0-224 100-224 224 0 124 100 224 224 224 124 0 224-100 224-224z m-480 0c0-141 115-256 256-256 141 0 256 115 256 256 0 141-115 256-256 256-141 0-256-115-256-256z m240 144l0-144c0-5 3-10 7-13l96-64c8-5 17-3 22 4 5 7 3 17-4 22l-89 60 0 135c0 9-7 16-16 16-9 0-16-7-16-16z"/>
<glyph glyph-name="comment" unicode="&#55;" d="M256 448c-130 0-224-85-224-176 0-37 16-71 40-100 5-6 8-15 7-24-3-27-11-52-25-76-1-1-1-2-2-3 11 3 22 7 33 12l6-15-6 15c17 7 33 16 48 27 9 6 20 8 29 4 31-10 62-16 94-16 130 0 224 85 224 176 0 91-94 176-224 176z m-256-176c0 115 115 208 256 208 142 0 256-93 256-208 0-115-114-208-256-208-36 0-70 7-104 18 0 0 0 0 0 0-17-12-35-22-54-31-24-10-53-19-82-19-6 0-12 4-15 10-2 6-1 13 4 17 8 8 15 18 21 29 12 20 19 41 22 63 0 0 0 0 0 0-28 34-48 74-48 121z"/>
<glyph glyph-name="comments" unicode="&#56;" d="M26 320c0 60 59 115 140 115 82 0 141-55 141-115 0-60-59-115-141-115-12 0-24 1-37 4-2 0-5 0-8-1-5-3-9-5-14-7-23-11-48-19-73-21 12 15 21 32 30 48 2 5 2 11-2 15-22 22-36 47-36 77z m140 141c-92 0-166-63-166-141 0-35 16-64 37-88-10-17-19-32-32-46l0 0c-5-6-6-14-3-21 3-7 10-11 17-11 35 0 69 10 98 23 4 2 8 4 12 6 12-2 25-4 37-4 92 0 167 63 167 141 0 78-75 141-167 141z m192-129c75-5 128-58 128-114 0-30-14-55-36-78-4-4-4-10-2-15 9-16 18-32 30-47-25 2-50 10-73 20-5 2-9 5-14 7-3 2-6 2-8 1-13-2-25-4-37-4-55 0-99 25-123 59-9-2-18-4-27-5 27-47 84-79 150-79 12 0 25 1 37 3 4-1 8-3 12-5 29-13 63-24 98-24 7 0 14 5 17 12 3 7 2 15-3 20l0 1c-13 13-22 29-32 46 21 23 37 52 37 88 0 75-70 137-159 140 3-8 4-17 5-26z"/>
<glyph glyph-name="cookie-bite" unicode="&#57;" d="M183 484l-74-40c-20-10-36-27-46-47l-36-76c-10-20-13-43-9-65l14-82c4-22 15-43 31-58l60-59c16-15 37-25 59-28l83-12c22-3 44 1 64 11l74 40c20 10 36 27 46 47l36 76c10 20 13 42 9 64 0 6-5 10-10 11-52 8-93 47-105 97-1 8-8 13-15 15-55 8-98 52-107 106 0 6-4 10-10 11-22 3-44-1-64-11z m46-20c15-58 62-104 121-117 16-54 59-96 114-110 0-11-2-22-7-33l-37-75c-7-14-18-26-32-33l-74-39c-14-8-29-11-45-8l-83 11c-15 3-29 10-41 20l-60 59c-11 11-19 25-21 40l-15 83c-3 15 0 31 7 45l36 76c7 14 18 26 32 33l74 39c10 6 20 8 31 9z m-45-144c0 13-11 24-24 24-13 0-24-11-24-24 0-13 11-24 24-24 13 0 24 11 24 24z m8-184c13 0 24 11 24 24 0 13-11 24-24 24-13 0-24-11-24-24 0-13 11-24 24-24z m120 120c0 13-11 24-24 24-13 0-24-11-24-24 0-13 11-24 24-24 13 0 24 11 24 24z m40-120c13 0 24 11 24 24 0 13-11 24-24 24-13 0-24-11-24-24 0-13 11-24 24-24z"/>
<glyph glyph-name="credit-card" unicode="&#33;" d="M57 427c-16 0-29-13-29-29l0-28 456 0 0 28c0 16-13 29-29 29z m-29-86l0-57 456 0 0 57z m0-85l0-142c0-16 13-29 29-29l398 0c16 0 29 13 29 29l0 142z m-28 142c0 32 26 57 57 57l398 0c31 0 57-25 57-57l0-284c0-32-26-57-57-57l-398 0c-31 0-57 25-57 57z m85-242c0 8 7 15 15 15l56 0c8 0 15-7 15-15 0-7-7-14-15-14l-56 0c-8 0-15 7-15 14z m114 0c0 8 7 15 14 15l114 0c8 0 14-7 14-15 0-7-6-14-14-14l-114 0c-7 0-14 7-14 14z"/>
<glyph glyph-name="database" unicode="&#34;" d="M448 96c0-2-1-7-8-15-8-8-20-16-38-24-36-15-87-25-146-25-59 0-110 10-146 25-18 8-30 16-38 24-7 8-8 13-8 15l0 84c17-8 38-16 61-21 38-10 83-15 131-15 48 0 93 5 131 14 23 6 44 13 61 22z m0 212l0-90c-14-11-38-21-69-28-34-9-77-14-123-14-46 0-88 5-123 14-31 7-54 17-69 28l0 90c17-8 38-16 61-21 38-10 83-15 131-15 48 0 93 5 131 14 23 6 44 13 61 22z m0 38c-14-11-38-21-69-28-34-9-77-14-123-14-46 0-88 5-123 14-31 7-54 17-69 28l0 70c0 2 1 7 8 15 8 7 20 16 38 23 36 16 87 26 146 26 59 0 110-10 146-26 18-7 30-16 38-23 7-8 8-13 8-15z m32-250l0 320c0 53-100 96-224 96-124 0-224-43-224-96l0-320c0-53 100-96 224-96 124 0 224 43 224 96z"/>
<glyph glyph-name="download" unicode="&#35;" d="M272 496c0 9-7 16-16 16-9 0-16-7-16-16l0-313-101 100c-6 6-16 6-22 0-6-6-6-16 0-22l128-128c6-7 16-7 22 0l128 128c7 6 7 16 0 22-6 6-16 6-22 0l-101-100z m-132-304l-76 0c-35 0-64-29-64-64l0-64c0-35 29-64 64-64l384 0c35 0 64 29 64 64l0 64c0 35-29 64-64 64l-76 0-32-32 108 0c18 0 32-14 32-32l0-64c0-18-14-32-32-32l-384 0c-18 0-32 14-32 32l0 64c0 18 14 32 32 32l108 0z m292-96c0 13-11 24-24 24-13 0-24-11-24-24 0-13 11-24 24-24 13 0 24 11 24 24z"/>
<glyph glyph-name="ellipsis" unicode="&#36;" d="M448 256c0-18-14-32-32-32-18 0-32 14-32 32 0 18 14 32 32 32 18 0 32-14 32-32z m-160 0c0-18-14-32-32-32-18 0-32 14-32 32 0 18 14 32 32 32 18 0 32-14 32-32z m-192-32c-18 0-32 14-32 32 0 18 14 32 32 32 18 0 32-14 32-32 0-18-14-32-32-32z"/>
<glyph glyph-name="ellipsis-vertical" unicode="&#37;" d="M256 128c-18 0-32-14-32-32 0-18 14-32 32-32 18 0 32 14 32 32 0 18-14 32-32 32z m0 160c-18 0-32-14-32-32 0-18 14-32 32-32 18 0 32 14 32 32 0 18-14 32-32 32z m32 128c0 18-14 32-32 32-18 0-32-14-32-32 0-18 14-32 32-32 18 0 32 14 32 32z"/>
<glyph glyph-name="envelope" unicode="&#38;" d="M64 416c-18 0-32-14-32-32l0-40 196-143c17-13 40-13 56 0l196 143 0 40c0 18-14 32-32 32z m-32-112l0-176c0-18 14-32 32-32l384 0c18 0 32 14 32 32l0 176-177-129c-28-21-66-21-94 0z m-32 80c0 35 29 64 64 64l384 0c35 0 64-29 64-64l0-256c0-35-29-64-64-64l-384 0c-35 0-64 29-64 64z"/>
<glyph glyph-name="eye" unicode="&#39;" d="M104 363c38 35 89 64 152 64 63 0 114-29 152-64 38-36 64-79 76-107-12-28-38-71-76-107-38-35-89-64-152-64-63 0-114 29-152 64-38 36-64 79-76 107 12 28 38 71 76 107z m152 92c-72 0-129-33-171-72-42-38-70-84-83-116-3-7-3-15 0-22 13-32 41-78 83-116 42-39 99-72 171-72 72 0 129 33 171 72 42 38 70 84 83 116 3 7 3 15 0 22-13 32-41 78-83 116-42 39-99 72-171 72z m-85-199c0 47 38 85 85 85 47 0 85-38 85-85 0-47-38-85-85-85-47 0-85 38-85 85z m199 0c0 63-51 114-114 114-63 0-114-51-114-114 0-63 51-114 114-114 63 0 114 51 114 114z"/>
<glyph glyph-name="eye-slash" unicode="&#40;" d="M21 458c-6 4-14 3-18-2-5-6-4-14 2-18l486-384c6-4 14-4 18 2 5 6 4 14-2 18z m463-212c3 6 3 14 0 20-12 28-37 70-74 105-38 35-89 64-154 64-41 0-77-12-107-29l22-17c25 12 53 21 85 21 56 0 102-26 137-58 34-32 57-70 68-96-8-18-21-42-40-65l20-16c21 26 35 51 43 71z m-413 91c-21-26-35-51-43-71-3-6-3-14 0-20 12-28 37-70 74-105 38-35 89-64 154-64 41 0 77 12 107 29l-22 17c-25-12-53-21-85-21-56 0-102 26-137 58-34 32-57 70-68 96 8 18 21 42 40 65z m185-183c13 0 26 2 38 7l-25 19c-4 0-9-1-13-1-41 0-74 32-77 72l-24 20c-1-5-1-10-1-15 0-56 45-102 102-102z m102 102c0 57-45 102-102 102-13 0-26-2-38-7l25-19c4 0 9 1 13 1 41 0 74-32 77-72l24-20c1 5 1 10 1 15z"/>
<glyph glyph-name="file" unicode="&#41;" d="M416 64l0 256-112 0c-26 0-48 21-48 48l0 112-128 0c-18 0-32-14-32-32l0-384c0-18 14-32 32-32l256 0c18 0 32 14 32 32z m0 288c-1 3-3 5-5 7l-116 116c-2 2-4 4-7 4l0-111c0-9 7-16 16-16z m-352 96c0 35 29 64 64 64l156 0c13 0 25-5 34-14l116-116c9-9 14-21 14-34l0-284c0-35-29-64-64-64l-256 0c-35 0-64 29-64 64z"/>
<glyph glyph-name="file-export" unicode="&#42;" d="M313 85c0-15-13-28-29-28l-227 0c-16 0-29 13-29 28l0 342c0 15 13 28 29 28l114 0 0-99c0-24 19-43 42-43l100 0 0-57 28 0 0 82c0 11-4 22-12 30l-103 103c-8 8-19 13-30 13l-139 0c-31 0-57-26-57-57l0-342c0-31 26-57 57-57l227 0c32 0 57 26 57 57l0 71-28 0z m-1 256l-99 0c-7 0-14 7-14 15l0 99c3-1 5-2 7-4l103-103c2-2 3-4 3-7z m110-47c-5 6-14 6-20 0-5-5-5-14 0-20l61-61-278 0c-8 0-14-6-14-14 0-8 6-14 14-14l278 0-61-61c-5-6-5-15 0-20 6-6 15-6 20 0l86 85c5 6 5 15 0 20z"/>
<glyph glyph-name="file-image" unicode="&#43;" d="M416 64l0 256-112 0c-26 0-48 21-48 48l0 112-128 0c-18 0-32-14-32-32l0-384c0-18 14-32 32-32l256 0c18 0 32 14 32 32z m0 288c-1 3-3 5-5 7l-116 116c-2 2-4 4-7 4l0-111c0-9 7-16 16-16z m-352 96c0 35 29 64 64 64l156 0c13 0 25-5 34-14l116-116c9-9 14-21 14-34l0-284c0-35-29-64-64-64l-256 0c-35 0-64 29-64 64z m72-192c0 13 11 24 24 24 13 0 24-11 24-24 0-13-11-24-24-24-13 0-24 11-24 24z m109-113c-3-4-7-7-13-7-5 0-10 2-13 6l-14 20-42-66 186 0-65 105z m39 97c8 0 15-4 20-11l76-122c3-4 4-9 4-15 0-15-13-28-28-28l-200 0c-15 0-28 13-28 28 0 6 2 11 4 16l52 81c5 7 12 11 20 11 8 0 15-4 19-10l8-10 33 49c5 7 12 11 20 11z"/>
<glyph glyph-name="file-import" unicode="&#44;" d="M480 64c0-18-14-32-32-32l-256 0c-18 0-32 14-32 32l0 80-32 0 0-80c0-35 29-64 64-64l256 0c35 0 64 29 64 64l0 284c0 13-5 25-14 34l-116 116c-9 9-21 14-34 14l-156 0c-35 0-64-29-64-64l0-192 32 0 0 192c0 18 14 32 32 32l128 0 0-112c0-27 22-48 48-48l112 0z m0 288l-112 0c-9 0-16 7-16 16l0 111c3 0 5-2 7-4l116-116c2-2 4-4 5-7z m-197-53c-6 6-16 6-22 0-6-6-6-16 0-22l68-69-313 0c-9 0-16-7-16-16 0-9 7-16 16-16l313 0-68-69c-6-6-6-16 0-22 6-7 16-7 22 0l96 96c7 6 7 16 0 22z"/>
<glyph glyph-name="file-invoice" unicode="&#45;" d="M384 32l-256 0c-18 0-32 14-32 32l0 384c0 18 14 32 32 32l128 0 0-112c0-27 22-48 48-48l112 0 0-256c0-18-14-32-32-32z m-80 320c-9 0-16 7-16 16l0 111c3 0 5-2 7-4l116-116c2-2 4-4 5-7z m-176 160c-35 0-64-29-64-64l0-384c0-35 29-64 64-64l256 0c35 0 64 29 64 64l0 284c0 13-5 25-14 34l-116 116c-9 9-21 14-34 14z m0-80c0-9 7-16 16-16l64 0c9 0 16 7 16 16 0 9-7 16-16 16l-64 0c-9 0-16-7-16-16z m0-64c0-9 7-16 16-16l64 0c9 0 16 7 16 16 0 9-7 16-16 16l-64 0c-9 0-16-7-16-16z m160-288c0-9 7-16 16-16l64 0c9 0 16 7 16 16 0 9-7 16-16 16l-64 0c-9 0-16-7-16-16z m64 96l-192 0 0 64 192 0z m-192 96c-18 0-32-14-32-32l0-64c0-18 14-32 32-32l192 0c18 0 32 14 32 32l0 64c0 18-14 32-32 32z"/>
<glyph glyph-name="file-lines" unicode="&#46;" d="M384 32l-256 0c-18 0-32 14-32 32l0 384c0 18 14 32 32 32l128 0 0-112c0-27 22-48 48-48l112 0 0-256c0-18-14-32-32-32z m-80 320c-9 0-16 7-16 16l0 111c3 0 5-2 7-4l116-116c2-2 4-4 5-7z m-176 160c-35 0-64-29-64-64l0-384c0-35 29-64 64-64l256 0c35 0 64 29 64 64l0 284c0 13-5 25-14 34l-116 116c-9 9-21 14-34 14z m48-256c-9 0-16-7-16-16 0-9 7-16 16-16l160 0c9 0 16 7 16 16 0 9-7 16-16 16z m0-64c-9 0-16-7-16-16 0-9 7-16 16-16l160 0c9 0 16 7 16 16 0 9-7 16-16 16z m0-64c-9 0-16-7-16-16 0-9 7-16 16-16l160 0c9 0 16 7 16 16 0 9-7 16-16 16z"/>
<glyph glyph-name="file-pdf" unicode="&#47;" d="M64 32l48 0 0-32-48 0c-35 0-64 29-64 64l0 384c0 35 29 64 64 64l156 0c13 0 25-5 34-14l116-116c9-9 14-21 14-34l0-140-32 0 0 112-112 0c-26 0-48 21-48 48l0 112-128 0c-18 0-32-14-32-32l0-384c0-18 14-32 32-32z m288 320c-1 3-3 5-5 7l-116 116c-2 2-4 4-7 4l0-111c0-9 7-16 16-16z m-176-192l32 0c31 0 56-25 56-56 0-31-25-56-56-56l-16 0 0-32c0-9-7-16-16-16-9 0-16 7-16 16l0 128c0 9 7 16 16 16z m32-80c13 0 24 11 24 24 0 13-11 24-24 24l-16 0 0-48z m96 80l32 0c27 0 48-22 48-48l0-64c0-27-21-48-48-48l-32 0c-9 0-16 7-16 16l0 128c0 9 7 16 16 16z m32-128c9 0 16 7 16 16l0 64c0 9-7 16-16 16l-16 0 0-96z m80 112c0 9 7 16 16 16l48 0c9 0 16-7 16-16 0-9-7-16-16-16l-32 0 0-32 32 0c9 0 16-7 16-16 0-9-7-16-16-16l-32 0 0-48c0-9-7-16-16-16-9 0-16 7-16 16z"/>
<glyph glyph-name="file-pen" unicode="&#58;" d="M57 57l173 0-1-3c-2-9-2-18 1-26l-173 0c-31 0-57 26-57 57l0 342c0 31 26 57 57 57l139 0c11 0 22-5 30-13l103-103c8-8 12-19 12-30l0-107-28-29 0 111-100 0c-23 0-42 19-42 43l0 99-114 0c-16 0-29-13-29-28l0-342c0-15 13-28 29-28z m255 284c0 3-1 5-3 7l-103 103c-2 2-4 3-7 4l0-99c0-8 7-15 14-15z m149-92c-6 5-15 5-20 0l-22-22 35-36 22 22c6 6 6 15 0 21l-15 15z m-157-137c-2-1-3-4-3-6l-11-44 43 11c3 1 5 2 7 4l94 94-35 36z m117 157c16 17 43 17 60 0l15-15c17-17 17-44 0-61l-136-136c-6-6-12-10-20-11l-66-17c-5-1-10 0-14 4-3 3-5 8-4 13l17 67c2 7 6 14 11 20z"/>
<glyph glyph-name="file-spreadsheet" unicode="&#59;" d="M384 32l-256 0c-18 0-32 14-32 32l0 384c0 18 14 32 32 32l128 0 0-112c0-27 22-48 48-48l112 0 0-256c0-18-14-32-32-32z m-80 320c-9 0-16 7-16 16l0 111c3 0 5-2 7-4l116-116c2-2 4-4 5-7z m-176 160c-35 0-64-29-64-64l0-384c0-35 29-64 64-64l256 0c35 0 64 29 64 64l0 284c0 13-5 25-14 34l-116 116c-9 9-21 14-34 14z m32-384l80 0 0-32-80 0z m0 32l0 32 80 0 0-32z m112-64l0 32 80 0 0-32z m0 64l0 32 80 0 0-32z m112-16l0 112c0 18-14 32-32 32l-192 0c-18 0-32-14-32-32l0-160c0-18 14-32 32-32l192 0c18 0 32 14 32 32z m-32 112l0-32-192 0 0 32z"/>
<glyph glyph-name="file-zip" unicode="&#60;" d="M64 32l96 0 0-32-96 0c-35 0-64 29-64 64l0 384c0 35 29 64 64 64l156 0c13 0 25-5 34-14l116-116c9-9 14-21 14-34l0-124-32 0 0 96-112 0c-26 0-48 21-48 48l0 112-128 0c-18 0-32-14-32-32l0-384c0-18 14-32 32-32z m288 320c-1 3-3 5-5 7l-116 116c-2 2-4 4-7 4l0-111c0-9 7-16 16-16z m-112-192l64 0c6 0 11-3 14-8 3-4 3-10 0-15l-52-105 38 0c9 0 16-7 16-16 0-9-7-16-16-16l-64 0c-5 0-11 3-14 8-2 4-3 10 0 15l52 105-38 0c-9 0-16 7-16 16 0 9 7 16 16 16z m144-16l0-128c0-9-7-16-16-16-9 0-16 7-16 16l0 128c0 9 7 16 16 16 9 0 16-7 16-16z m32 0c0 9 7 16 16 16l24 0c31 0 56-25 56-56 0-31-25-56-56-56l-8 0 0-32c0-9-7-16-16-16-9 0-16 7-16 16z m32-64l8 0c13 0 24 11 24 24 0 13-11 24-24 24l-8 0z"/>
<glyph glyph-name="filter" unicode="&#61;" d="M0 440c0 22 18 40 40 40l433 0c21 0 39-18 39-40 0-9-3-18-9-25l-183-221 0-128c0-19-15-34-34-34-7 0-15 2-21 7l-61 47c-7 7-12 16-12 26l0 82-183 221c-6 7-9 16-9 25z m40 8c-5 0-8-3-8-8 0-1 1-3 2-4l186-226c3-3 4-6 4-10l0-88 61-48c0 0 1 0 1 0 1 0 2 1 2 2l0 134c0 4 1 7 4 10l186 226c1 1 2 3 2 4 0 5-3 8-7 8z"/>
<glyph glyph-name="filter-list" unicode="&#62;" d="M28 448c-16 0-28-12-28-28 0-6 2-13 7-18l105-120 0-130c0-10 5-20 13-26l76-57c4-3 9-5 15-5 13 0 24 11 24 24l0 194 105 120c5 5 7 12 7 18 0 16-12 28-28 28z m112-150l-103 118 278 0-103-118c-3-2-4-6-4-10l0-184-64 48 0 136c0 4-1 8-4 10z m196-186c-9 0-16-7-16-16 0-9 7-16 16-16l160 0c9 0 16 7 16 16 0 9-7 16-16 16z m-16 144c0-9 7-16 16-16l160 0c9 0 16 7 16 16 0 9-7 16-16 16l-160 0c-9 0-16-7-16-16z m80 176c-9 0-16-7-16-16 0-9 7-16 16-16l96 0c9 0 16 7 16 16 0 9-7 16-16 16z"/>
<glyph glyph-name="flag-swallowtail" unicode="&#63;" d="M64 496c0 9-7 16-16 16-9 0-16-7-16-16l0-480c0-9 7-16 16-16 9 0 16 7 16 16l0 144 392 0c13 0 24 11 24 24 0 5-2 10-5 14l-91 122 91 122c3 4 5 9 5 14 0 13-11 24-24 24l-392 0z m0-48l376 0-82-109c-8-11-8-27 0-38l82-109-376 0z"/>
<glyph glyph-name="folder" unicode="&#64;" d="M64 448c-18 0-32-14-32-32l0-320c0-18 14-32 32-32l384 0c18 0 32 14 32 32l0 256c0 18-14 32-32 32l-156 0c-17 0-33 7-45 19l-36 36c-6 6-14 9-23 9z m-64-32c0 35 29 64 64 64l124 0c17 0 33-7 45-19l36-36c6-6 14-9 23-9l156 0c35 0 64-29 64-64l0-256c0-35-29-64-64-64l-384 0c-35 0-64 29-64 64z"/>
<glyph glyph-name="folder-open" unicode="&#91;" d="M398 341l0-28 29 0 0 28c0 32-26 57-57 57l-105 0c-15 0-29 6-40 17l-23 23c-11 11-26 17-41 17l-104 0c-31 0-57-25-57-57l0-284c0-32 26-57 57-57l355 0c18 0 34 10 40 27l57 142c5 13 4 28-4 40-8 11-22 18-36 18l-355 0c-18 0-33-10-40-26l-46-115 0 255c0 16 13 29 29 29l104 0c8 0 15-3 20-9l21 20-21-20 24-23c16-16 38-25 60-25l105 0c16 0 28-13 28-29z m-57-256l-284 0c-5 0-9 3-12 7-2 3-3 8-1 13l57 142c2 5 7 9 13 9l355 0c5 0 9-2 12-6 3-4 3-9 1-13l-56-143c-3-5-8-9-14-9z"/>
<glyph glyph-name="folder-tree" unicode="&#93;" d="M28 469c0 8-6 15-14 15-8 0-14-7-14-15l0-313c0-23 19-42 43-42l185 0 0 28-185 0c-8 0-15 7-15 14l0 214 200 0 0 28-200 0z m323-14l19-19c6-6 14-9 22-9l92 0 0-114-200 0 0 142z m-95 0l0-142c0-16 13-29 28-29l200 0c15 0 28 13 28 29l0 114c0 15-13 28-28 28l-92 0c0 0-1 0-2 1l-19 19c-5 6-13 9-20 9l-67 0c-15 0-28-13-28-29z m28-256l67 0 19-19c6-6 14-9 22-9l92 0 0-114-200 0z m-28 0l0-142c0-16 13-29 28-29l200 0c15 0 28 13 28 29l0 114c0 15-13 28-28 28l-92 0c0 0-1 0-2 1l-19 19c-5 6-13 9-20 9l-67 0c-15 0-28-13-28-29z"/>
<glyph glyph-name="gears" unicode="&#94;" d="M117 428l-6-20c-1-4-4-7-8-9-12-3-22-10-31-18-3-3-8-4-12-3l-20 6c-2-3-4-5-5-8l-2-3c-2-3-3-6-4-8l14-15c3-3 5-8 4-12-2-6-2-12-2-18 0-6 0-12 2-18 1-4-1-9-4-12l-14-15c1-2 2-5 4-8l2-3c1-3 3-5 5-8l20 6c4 1 9 0 12-3 9-9 19-15 31-18 4-2 7-5 9-9l5-20c4-1 7-1 11-1 4 0 7 0 11 1l6 20c1 4 4 7 8 9 12 3 22 10 31 18 4 3 8 4 12 3l20-6c2 3 4 5 5 8l3 4c1 2 2 5 3 7l-14 15c-3 3-5 8-4 12 2 6 2 12 2 18 0 6 0 12-2 18-1 4 1 9 4 12l14 15c-1 2-2 5-3 7l-3 4c-1 3-3 5-5 8l-20-6c-4-1-9 0-12 3-9 9-19 15-31 18-4 2-7 5-9 9l-5 20c-4 1-7 1-11 1-4 0-7 0-11-1z m-12 24c7 2 15 2 23 2 8 0 16 0 23-2 5 0 9-4 10-9l6-22c11-4 21-9 29-16l22 6c5 1 10-1 13-5 5-5 9-11 12-17l0 0 3-4 0 0c3-6 6-13 8-19 2-5 1-10-2-13l-16-17c0-5 1-10 1-16 0-6 0-11-1-17l16-16c3-3 4-8 2-13-2-7-5-13-8-19l0 0-3-4 0-1c-3-6-8-11-12-17-3-3-8-5-13-4l-22 6c-8-7-18-13-29-17l-6-21c-1-5-5-9-10-9-7-2-15-2-23-2-8 0-16 0-23 2-5 0-9 4-11 9l-6 22c-10 4-20 9-28 16l-22-6c-5-1-10 1-13 5-5 5-9 11-12 17l0 0-3 4 0 0c-3 6-6 12-8 19-2 5-1 10 3 13l15 16c0 6-1 11-1 17 0 6 1 11 1 17l-15 16c-4 3-5 8-3 13 2 7 5 13 8 19l0 0 3 4 0 0c3 6 7 12 12 17 3 4 8 6 13 5l22-6c8 7 18 12 29 16l6 22c1 5 5 9 10 9z m-22-132c0 25 20 45 45 45 25 0 45-20 45-45 0-25-20-45-45-45-25 0-45 20-45 45z m45-19c11 0 19 8 19 19 0 11-8 19-19 19-11 0-19-8-19-19 0-11 8-19 19-19z m135-133l20-5c4-1 8-5 9-9 4-12 10-22 18-31 3-3 4-8 3-12l-5-20c2-2 5-4 7-5l4-2c2-2 5-3 8-4l14 15c3 3 8 4 12 3 6-1 12-2 18-2 6 0 12 1 18 2 4 1 9 0 12-3l15-15c2 1 5 2 8 4l3 2c3 2 5 3 8 5l-5 20c-2 4 0 9 3 12 8 9 14 19 18 31 1 4 4 8 8 9l20 5c1 4 1 8 1 11 0 4 0 8-1 11l-20 6c-4 1-7 4-8 8-4 12-10 23-18 32-3 3-5 7-3 11l5 21c-3 1-5 3-8 4l-3 3c-3 1-6 2-8 4l-15-15c-3-3-7-4-12-3-5 1-12 1-18 1-6 0-12 0-18-1-4-1-9 0-12 3l-14 15c-3-2-6-3-8-4l-4-3c-3-1-5-3-7-4l5-21c1-4 0-8-3-11-8-9-14-20-18-32-1-4-5-7-9-8l-20-6c0-3-1-7-1-11 0-3 1-7 1-11z m-24-12c-2 7-2 15-2 23 0 8 1 16 2 23 1 5 4 9 9 11l22 6c4 10 9 20 16 28l-5 22c-2 5 0 10 4 13 5 5 11 9 17 12l0 1 4 2 0 0c6 3 13 6 19 9 5 1 10 0 14-3l16-16c5 1 11 1 16 1 6 0 11 0 17-1l16 16c3 3 9 4 13 3 7-3 13-6 19-9l0 0 4-3 1 0c6-3 11-7 17-12 4-3 5-8 4-13l-6-22c7-8 13-18 17-28l22-6c4-2 8-6 9-11 1-7 2-15 2-23 0-8-1-16-2-23-1-5-5-9-9-10l-22-6c-4-11-10-20-17-29l6-22c1-5 0-10-4-13-6-4-11-9-18-12l0 0-3-2 0 0c-7-4-13-7-20-9-4-2-9-1-13 3l-16 16c-5-1-11-2-17-2-5 0-11 1-16 2l-16-16c-4-4-9-5-14-3-6 2-13 5-19 9l0 0-3 2-1 0c-6 4-12 8-17 12-4 3-5 8-4 13l6 22c-7 9-13 18-17 29l-22 6c-5 1-8 5-9 10z m132-22c-25 0-45 20-45 45 0 25 20 45 45 45 25 0 45-20 45-45 0-25-20-45-45-45z m19 45c0 11-8 19-19 19-10 0-19-8-19-19 0-10 9-19 19-19 11 0 19 9 19 19z"/>
<glyph glyph-name="globe" unicode="&#95;" d="M256 32c17 0 40 14 62 57 10 20 18 44 24 71l-172 0c6-27 14-51 24-71 22-43 45-57 62-57z m-92 160l184 0c3 20 4 42 4 64 0 22-1 44-4 64l-184 0c-2-20-4-42-4-64 0-22 2-44 4-64z m6 160l172 0c-6 27-14 51-24 71-22 43-45 57-62 57-17 0-40-14-62-57-10-20-18-44-24-71z m210-32c3-21 4-42 4-64 0-22-1-44-4-64l91 0c6 20 9 42 9 64 0 22-3 44-9 64z m79 32c-26 54-74 97-131 116 21-28 37-69 47-116l84 0z m-322 0c10 48 27 88 48 116-58-19-106-62-131-116z m-96-32c-6-20-9-42-9-64 0-22 3-44 9-64l91 0c-3 20-4 42-4 64 0 22 1 43 4 64l-91 0z m287-276c57 19 105 61 130 116l-83 0c-10-48-26-88-47-116z m-143 0c-21 28-38 68-48 116l-83 0c26-55 73-97 131-116z m71-44c-141 0-256 115-256 256 0 141 115 256 256 256 141 0 256-115 256-256 0-141-115-256-256-256z"/>
<glyph glyph-name="grid" unicode="&#96;" d="M120 448c4 0 8-4 8-8l0-48c0-4-4-8-8-8l-48 0c-4 0-8 4-8 8l0 48c0 4 4 8 8 8z m-48 32c-22 0-40-18-40-40l0-48c0-22 18-40 40-40l48 0c22 0 40 18 40 40l0 48c0 22-18 40-40 40z m48-192c4 0 8-4 8-8l0-48c0-4-4-8-8-8l-48 0c-4 0-8 4-8 8l0 48c0 4 4 8 8 8z m-48 32c-22 0-40-18-40-40l0-48c0-22 18-40 40-40l48 0c22 0 40 18 40 40l0 48c0 22-18 40-40 40z m0-192l48 0c4 0 8-4 8-8l0-48c0-4-4-8-8-8l-48 0c-4 0-8 4-8 8l0 48c0 4 4 8 8 8z m-40-8l0-48c0-22 18-40 40-40l48 0c22 0 40 18 40 40l0 48c0 22-18 40-40 40l-48 0c-22 0-40-18-40-40z m248 328c4 0 8-4 8-8l0-48c0-4-4-8-8-8l-48 0c-4 0-8 4-8 8l0 48c0 4 4 8 8 8z m-48 32c-22 0-40-18-40-40l0-48c0-22 18-40 40-40l48 0c22 0 40 18 40 40l0 48c0 22-18 40-40 40z m0-192l48 0c4 0 8-4 8-8l0-48c0-4-4-8-8-8l-48 0c-4 0-8 4-8 8l0 48c0 4 4 8 8 8z m-40-8l0-48c0-22 18-40 40-40l48 0c22 0 40 18 40 40l0 48c0 22-18 40-40 40l-48 0c-22 0-40-18-40-40z m88-152c4 0 8-4 8-8l0-48c0-4-4-8-8-8l-48 0c-4 0-8 4-8 8l0 48c0 4 4 8 8 8z m-48 32c-22 0-40-18-40-40l0-48c0-22 18-40 40-40l48 0c22 0 40 18 40 40l0 48c0 22-18 40-40 40z m160 288l48 0c4 0 8-4 8-8l0-48c0-4-4-8-8-8l-48 0c-4 0-8 4-8 8l0 48c0 4 4 8 8 8z m-40-8l0-48c0-22 18-40 40-40l48 0c22 0 40 18 40 40l0 48c0 22-18 40-40 40l-48 0c-22 0-40-18-40-40z m88-152c4 0 8-4 8-8l0-48c0-4-4-8-8-8l-48 0c-4 0-8 4-8 8l0 48c0 4 4 8 8 8z m-48 32c-22 0-40-18-40-40l0-48c0-22 18-40 40-40l48 0c22 0 40 18 40 40l0 48c0 22-18 40-40 40z m0-192l48 0c4 0 8-4 8-8l0-48c0-4-4-8-8-8l-48 0c-4 0-8 4-8 8l0 48c0 4 4 8 8 8z m-40-8l0-48c0-22 18-40 40-40l48 0c22 0 40 18 40 40l0 48c0 22-18 40-40 40l-48 0c-22 0-40-18-40-40z"/>
<glyph glyph-name="grid-2" unicode="&#123;" d="M80 448c-9 0-16-7-16-16l0-96c0-9 7-16 16-16l96 0c9 0 16 7 16 16l0 96c0 9-7 16-16 16z m-48-16c0 26 22 48 48 48l96 0c27 0 48-22 48-48l0-96c0-27-21-48-48-48l-96 0c-26 0-48 21-48 48z m48-240c-9 0-16-7-16-16l0-96c0-9 7-16 16-16l96 0c9 0 16 7 16 16l0 96c0 9-7 16-16 16z m-48-16c0 26 22 48 48 48l96 0c27 0 48-22 48-48l0-96c0-27-21-48-48-48l-96 0c-26 0-48 21-48 48z m400 272l-96 0c-9 0-16-7-16-16l0-96c0-9 7-16 16-16l96 0c9 0 16 7 16 16l0 96c0 9-7 16-16 16z m-96 32l96 0c27 0 48-22 48-48l0-96c0-27-21-48-48-48l-96 0c-26 0-48 21-48 48l0 96c0 26 22 48 48 48z m0-288c-9 0-16-7-16-16l0-96c0-9 7-16 16-16l96 0c9 0 16 7 16 16l0 96c0 9-7 16-16 16z m-48-16c0 26 22 48 48 48l96 0c27 0 48-22 48-48l0-96c0-27-21-48-48-48l-96 0c-26 0-48 21-48 48z"/>
<glyph glyph-name="handshake" unicode="&#124;" d="M211 410c-27 0-53-10-74-27l-22-19 0-31c2 0 4 1 6 3l33 27c10 9 23 15 36 18l28 29z m-121-231c7-1 13-4 18-9l55-55c20-20 53-21 74-2 0 1 1 1 1 2 22-17 53-15 71 6 5 5 8 11 11 18 15-4 32 0 44 11 9 9 15 19 17 30l41 0 0-14c0-21 18-38 39-38l13 0c21 0 38 17 38 38l0 167c0 14-11 25-26 25l-64 0 0-152-44 0c-2 7-6 13-12 19l-68 68 6 6c6 5 6 13 1 19-5 5-13 5-18 0l-61-56c-10-10-27-10-37 0-13 11-13 30-1 41l63 60c15 13 34 21 53 21 18 0 36-6 50-18l36-30c2-2 4-3 7-3l0 30-27 23c-18 15-42 24-66 24-26 0-51-10-70-28l-64-60c-23-22-22-59 2-79 20-19 51-18 72 0l35 33 69-69c11-11 10-28-1-37-9-8-21-9-31-3-4 3-9 3-13 1-4-3-7-7-6-12 0-7-2-13-7-18-10-12-27-12-37-2l-7 7c-3 3-7 4-11 4-4-1-7-4-9-7-2-3-4-6-6-8-11-10-28-9-39 1l-31 32-23 23c-10 10-23 16-37 16l0 154-64 0c-15 0-26-11-26-25l0-167c0-21 17-38 38-38l13 0c21 0 39 17 39 38z m-26 154l0-167c0-7-6-12-13-12l-13 0c-7 0-12 5-12 12l0 167z m422 0l0-167c0-7-5-12-12-12l-13 0c-7 0-13 5-13 12l0 167z"/>
<glyph glyph-name="heart" unicode="&#125;" d="M244 381l-12 14-4 5c-26 29-65 42-104 35-53-9-92-56-92-110l0-3c0-33 13-64 37-86l184-171c1-1 2-1 3-1 1 0 2 0 3 1l184 171c24 22 37 53 37 86l0 3c0 54-39 101-92 110-38 7-78-6-104-35l-4-5-12-14c-3-3-7-5-12-5-5 0-9 2-12 5z m35 57c32 26 74 36 115 29 68-13 118-72 118-142l0-3c0-36-13-71-37-98-3-4-6-7-10-11l-184-171c-1-1-2-2-3-2-6-5-14-8-22-8-9 0-18 4-25 10l-184 171c-4 3-7 7-10 11-24 27-37 62-37 98l0 3c0 70 50 129 118 142 41 7 83-3 115-29 7-5 13-11 19-17l4-5 4 5c4 5 9 9 13 13 2 1 4 3 6 4z"/>
<glyph glyph-name="hourglass" unicode="&#126;" d="M80 512c-9 0-16-7-16-16 0-9 7-16 16-16l16 0 0-42c0-49 23-96 62-126l72-56-72-56c-39-30-62-77-62-126l0-42-16 0c-9 0-16-7-16-16 0-9 7-16 16-16l352 0c9 0 16 7 16 16 0 9-7 16-16 16l-16 0 0 42c0 49-23 96-62 126l-72 56 72 56c39 30 62 77 62 126l0 42 16 0c9 0 16 7 16 16 0 9-7 16-16 16z m304-32l0-42c0-39-18-76-49-101l-79-61-79 61c-31 25-49 62-49 101l0 42z m-128-244l79-61c31-25 49-62 49-101l0-42-256 0 0 42c0 39 18 76 49 101z"/>
<glyph glyph-name="house" unicode="&#92;" d="M265 480c-5 5-13 5-18 0l-242-213c-6-5-7-15-1-20 5-6 14-7 20-2l33 30 0-175c0-40 32-72 71-72l256 0c39 0 71 32 71 72l0 175 33-30c6-5 15-4 20 2 6 5 5 14-1 20z m-180-380l0 200 171 150 171-150 0-200c0-24-19-43-43-43l-57 0 0 142c0 16-13 29-28 29l-86 0c-15 0-28-13-28-29l0-142-57 0c-24 0-43 19-43 43z m128-43l0 142 86 0 0-142z"/>
<glyph glyph-name="image" unicode="&#57344;" d="M64 448c-18 0-32-14-32-32l0-233 68 67c15 16 41 16 56 0l68-67 132 131c15 16 41 16 56 0l68-67 0 169c0 18-14 32-32 32z m-32-311l0-41c0-18 14-32 32-32l41 0 96 96-67 68c-3 3-8 3-12 0z m358 155c-3 3-8 3-12 0l-227-228 297 0c18 0 32 14 32 32l0 105z m-390 124c0 35 29 64 64 64l384 0c35 0 64-29 64-64l0-320c0-35-29-64-64-64l-384 0c-35 0-64 29-64 64z m160-48c0 9-7 16-16 16-9 0-16-7-16-16 0-9 7-16 16-16 9 0 16 7 16 16z m-64 0c0 27 21 48 48 48 27 0 48-21 48-48 0-27-21-48-48-48-27 0-48 21-48 48z"/>
<glyph glyph-name="lightbulb" unicode="&#57345;" d="M374 254c17 23 26 51 26 82 0 79-64 144-144 144-79 0-144-65-144-144 0-31 10-59 26-82 4-6 9-12 13-19 13-18 27-37 38-57 9-16 14-34 17-50l-33 0c-2 12-6 24-12 34-10 18-22 35-34 52-5 7-11 14-16 22-19 28-31 63-31 100 0 97 79 176 176 176 97 0 176-79 176-176 0-37-12-72-31-100-5-8-11-15-16-22-12-17-24-33-34-52-6-10-10-22-12-34l-32 0c2 17 7 34 16 50 11 20 25 40 38 57 5 7 9 13 13 19z m-118 162c-44 0-80-36-80-80 0-9-7-16-16-16-9 0-16 7-16 16 0 62 50 112 112 112 9 0 16-7 16-16 0-9-7-16-16-16z m-45-352c6-19 24-32 45-32 21 0 39 13 45 32z m-35 16l0 5c0 6 5 11 11 11l138 0c6 0 11-5 11-11l0-5c0-44-36-80-80-80-44 0-80 36-80 80z"/>
<glyph glyph-name="list" unicode="&#57346;" d="M48 400l0 32 32 0 0-32z m-32 40l0-48c0-13 11-24 24-24l48 0c13 0 24 11 24 24l0 48c0 13-11 24-24 24l-48 0c-13 0-24-11-24-24z m160-8c-9 0-16-7-16-16 0-9 7-16 16-16l320 0c9 0 16 7 16 16 0 9-7 16-16 16z m0-160c-9 0-16-7-16-16 0-9 7-16 16-16l320 0c9 0 16 7 16 16 0 9-7 16-16 16z m0-160c-9 0-16-7-16-16 0-9 7-16 16-16l320 0c9 0 16 7 16 16 0 9-7 16-16 16z m-128 160l32 0 0-32-32 0z m-8 32c-13 0-24-11-24-24l0-48c0-13 11-24 24-24l48 0c13 0 24 11 24 24l0 48c0 13-11 24-24 24z m8-224l0 32 32 0 0-32z m-32 40l0-48c0-13 11-24 24-24l48 0c13 0 24 11 24 24l0 48c0 13-11 24-24 24l-48 0c-13 0-24-11-24-24z"/>
<glyph glyph-name="list-check" unicode="&#57347;" d="M156 454c6 7 5 17-2 22-6 6-17 5-22-2l-69-82-36 35c-6 6-16 6-22 0-7-6-7-16 0-22l48-48c3-4 7-5 12-5 4 0 8 2 11 6l80 96z m0-160c6 7 5 17-2 22-6 6-17 5-22-2l-69-82-36 35c-6 6-16 6-22 0-7-6-7-16 0-22l48-48c3-4 7-5 12-5 4 0 8 2 11 6l80 96z m36 122c0-9 7-16 16-16l288 0c9 0 16 7 16 16 0 9-7 16-16 16l-288 0c-9 0-16-7-16-16z m0-160c0-9 7-16 16-16l288 0c9 0 16 7 16 16 0 9-7 16-16 16l-288 0c-9 0-16-7-16-16z m-32-160c0-9 7-16 16-16l320 0c9 0 16 7 16 16 0 9-7 16-16 16l-320 0c-9 0-16-7-16-16z m-64 0c0 18-14 32-32 32-18 0-32-14-32-32 0-18 14-32 32-32 18 0 32 14 32 32z"/>
<glyph glyph-name="location-dot" unicode="&#57348;" d="M416 320c0 88-72 160-160 160-88 0-160-72-160-160 0-16 5-37 17-63 11-26 26-54 43-83 34-55 75-108 100-140 26 32 66 85 100 140 17 29 33 57 44 83 11 26 16 47 16 63z m32 0c0-87-117-243-168-307-13-16-35-16-48 0-51 64-168 220-168 307 0 106 86 192 192 192 106 0 192-86 192-192z m-240 0c0-27 21-48 48-48 27 0 48 21 48 48 0 27-21 48-48 48-27 0-48-21-48-48z m48-80c-44 0-80 36-80 80 0 44 36 80 80 80 44 0 80-36 80-80 0-44-36-80-80-80z"/>
<glyph glyph-name="lock" unicode="&#57349;" d="M160 384l0-64 192 0 0 64c0 53-43 96-96 96-53 0-96-43-96-96z m-32-64l0 64c0 71 57 128 128 128 71 0 128-57 128-128l0-64 16 0c44 0 80-36 80-80l0-160c0-44-36-80-80-80l-288 0c-44 0-80 36-80 80l0 160c0 44 36 80 80 80z m-64-80l0-160c0-27 22-48 48-48l288 0c27 0 48 21 48 48l0 160c0 26-21 48-48 48l-288 0c-26 0-48-22-48-48z"/>
<glyph glyph-name="magnifying-glass" unicode="&#57350;" d="M384 304c0 97-79 176-176 176-97 0-176-79-176-176 0-97 79-176 176-176 97 0 176 79 176 176z m-41-158c-36-31-83-50-135-50-115 0-208 93-208 208 0 115 93 208 208 208 115 0 208-93 208-208 0-52-19-99-50-135l141-142c7-6 7-16 0-22-6-7-16-7-22 0z"/>
<glyph glyph-name="magnifying-glass-minus" unicode="&#57351;" d="M208 480c97 0 176-79 176-176 0-97-79-176-176-176-97 0-176 79-176 176 0 97 79 176 176 176z m0-384c52 0 99 19 135 50l142-141c6-7 16-7 22 0 7 6 7 16 0 22l-141 142c31 36 50 83 50 135 0 115-93 208-208 208-115 0-208-93-208-208 0-115 93-208 208-208z m-96 224c-9 0-16-7-16-16 0-9 7-16 16-16l192 0c9 0 16 7 16 16 0 9-7 16-16 16z"/>
<glyph glyph-name="magnifying-glass-plus" unicode="&#57352;" d="M208 480c97 0 176-79 176-176 0-97-79-176-176-176-97 0-176 79-176 176 0 97 79 176 176 176z m0-384c52 0 99 19 135 50l142-141c6-7 16-7 22 0 7 6 7 16 0 22l-141 142c31 36 50 83 50 135 0 115-93 208-208 208-115 0-208-93-208-208 0-115 93-208 208-208z m-16 112c0-9 7-16 16-16 9 0 16 7 16 16l0 80 80 0c9 0 16 7 16 16 0 9-7 16-16 16l-80 0 0 80c0 9-7 16-16 16-9 0-16-7-16-16l0-80-80 0c-9 0-16-7-16-16 0-9 7-16 16-16l80 0z"/>
<glyph glyph-name="money-bill" unicode="&#57353;" d="M427 398c0-31 25-57 57-57l0 29c0 16-13 28-29 28z m-29 0l-284 0c0-47-38-85-86-85l0-114c48 0 86-38 86-85l284 0c0 47 38 85 86 85l0 114c-48 0-86 38-86 85z m-370-256c0-16 13-28 29-28l28 0c0 31-25 57-57 57z m456 29c-32 0-57-26-57-57l28 0c16 0 29 12 29 28z m-427 227c-16 0-29-12-29-28l0-29c32 0 57 26 57 57z m-57-28c0 31 26 57 57 57l398 0c31 0 57-26 57-57l0-228c0-31-26-57-57-57l-398 0c-31 0-57 26-57 57z m313-114c0 31-26 57-57 57-31 0-57-26-57-57 0-31 26-57 57-57 31 0 57 26 57 57z m-142 0c0 47 38 85 85 85 47 0 85-38 85-85 0-47-38-85-85-85-47 0-85 38-85 85z"/>
<glyph glyph-name="newspaper" unicode="&#57354;" d="M160 448c-18 0-32-14-32-32l0-320c0-12-3-23-9-32l313 0c27 0 48 21 48 48l0 304c0 18-14 32-32 32z m-96-416c-35 0-64 29-64 64l0 256c0 35 29 64 64 64l0-32c-18 0-32-14-32-32l0-256c0-18 14-32 32-32 18 0 32 14 32 32l0 320c0 35 29 64 64 64l288 0c35 0 64-29 64-64l0-304c0-44-36-80-80-80z m320 368c0 9 7 16 16 16l32 0c9 0 16-7 16-16 0-9-7-16-16-16l-32 0c-9 0-16 7-16 16z m0-64c0 9 7 16 16 16l32 0c9 0 16-7 16-16 0-9-7-16-16-16l-32 0c-9 0-16 7-16 16z m0-64c0 9 7 16 16 16l32 0c9 0 16-7 16-16 0-9-7-16-16-16l-32 0c-9 0-16 7-16 16z m-224-64c0 9 7 16 16 16l256 0c9 0 16-7 16-16 0-9-7-16-16-16l-256 0c-9 0-16 7-16 16z m0-64c0 9 7 16 16 16l256 0c9 0 16-7 16-16 0-9-7-16-16-16l-256 0c-9 0-16 7-16 16z m32 144l128 0 0 96-128 0z m-32 104c0 13 11 24 24 24l144 0c13 0 24-11 24-24l0-112c0-13-11-24-24-24l-144 0c-13 0-24 11-24 24z"/>
<glyph glyph-name="paperclip" unicode="&#57355;" d="M413 445c-29 29-77 29-106 0l-192-192c-46-47-46-123 0-170 47-47 123-47 170 0l152 152c6 6 16 6 22 0 7-6 7-16 0-22l-152-152c-59-60-155-60-214 0-59 59-60 155 0 214l192 192c41 42 109 42 150 0 42-41 42-109 0-150l-183-184c-29-28-75-26-100 5-21 27-19 65 5 89l152 152c6 6 16 6 22 0 7-6 7-16 0-22l-151-152c-13-13-14-33-3-47 13-16 37-17 52-3l184 184c29 29 29 77 0 106z"/>
<glyph glyph-name="pen" unicode="&#57356;" d="M396 472c9 10 24 10 34 0l42-42c10-10 10-25 0-34l-54-55-77 77z m-78-77l77-77-235-235c-8-8-17-13-28-16l-92-27 27 92c3 11 9 20 16 28z m134 100c-21 22-57 22-79 0l-313-313c-11-11-19-25-24-41l-35-121c-2-5 0-11 4-15 4-4 10-6 16-4l121 35c15 5 29 13 40 24l313 313c22 22 22 57 0 79z"/>
<glyph glyph-name="phone" unicode="&#57357;" d="M376 237c-17 7-36 2-47-12l-33-40c-46 26-84 65-111 111l40 33c14 11 19 30 12 47l-48 112c-8 17-27 27-45 23l-112-24c-19-4-32-20-32-39 0-237 184-431 416-447 5 0 9-1 14-1 0 0 0 0 0 0 6 0 12 0 18 0 19 0 35 13 39 31l24 112c4 19-6 38-23 46l-112 48z m72-205c-230 0-416 186-416 416 0 4 3 7 6 8l112 24c4 1 8-1 9-5l48-112c2-3 1-7-2-9l-41-33c-12-10-15-28-7-41 30-51 72-94 123-123 13-8 31-5 41 7l33 41c2 3 6 4 9 2l112-48c4-1 6-5 5-9l-24-112c-1-3-4-6-8-6 0 0 0 0 0 0z"/>
<glyph glyph-name="print" unicode="&#57358;" d="M96 352l-32 0 0 96c0 35 29 64 64 64l230 0c17 0 33-7 45-19l26-26c12-12 19-29 19-46l0-69-32 0 0 69c0 9-3 17-9 23l-27 27c-6 6-14 9-22 9l-230 0c-18 0-32-14-32-32z m352-64l-384 0c-18 0-32-14-32-32l0-128 32 0 0 32c0 18 14 32 32 32l320 0c18 0 32-14 32-32l0-32 32 0 0 128c0 18-14 32-32 32z m0-192l0-64c0-18-14-32-32-32l-320 0c-18 0-32 14-32 32l0 64-32 0c-18 0-32 14-32 32l0 128c0 35 29 64 64 64l384 0c35 0 64-29 64-64l0-128c0-18-14-32-32-32z m-352 64l0-128 320 0 0 128z m336 104c13 0 24-11 24-24 0-13-11-24-24-24-13 0-24 11-24 24 0 13 11 24 24 24z"/>
<glyph glyph-name="puzzle-piece" unicode="&#57359;" d="M169 495c15 11 34 17 55 17 21 0 40-6 55-17 15-11 25-28 25-47 0-20-11-36-25-47-5-4-7-8-7-10 0-4 3-7 7-7l57 0c27 0 48-22 48-48l0-57c0-4 3-7 7-7 3 0 6 2 10 7 11 14 28 25 47 25 19 0 36-11 47-25 11-15 17-34 17-55 0-21-6-40-17-55-11-15-28-25-47-25-19 0-36 11-47 25-4 5-7 7-10 7-4 0-7-3-7-7l0-121c0-27-21-48-48-48l-57 0c-21 0-39 17-39 39 0 16 10 29 20 36 8 6 12 14 12 21 0 7-4 15-12 21-9 6-21 11-36 11-15 0-27-4-36-11-8-6-12-14-12-21 0-7 4-15 12-21 10-7 20-20 20-36 0-22-17-39-39-39l-121 0c-26 0-48 21-48 48l0 121c0 21 18 39 39 39 16 0 29-10 36-20 6-8 14-12 21-12 7 0 15 4 21 12 7 9 11 21 11 36 0 15-4 27-11 36-6 8-14 12-21 12-7 0-15-4-21-12-7-10-20-20-36-20-21 0-39 17-39 39l0 57c0 26 22 48 48 48l121 0c4 0 7 3 7 7 0 2-2 6-7 10-14 11-25 27-25 47 0 19 11 36 25 47z m19-26c-8-6-12-14-12-21 0-7 4-15 12-21 10-7 20-20 20-36 0-21-17-39-39-39l-121 0c-9 0-16-7-16-16l0-57c0-4 3-7 7-7 3 0 6 2 10 7 11 14 28 25 47 25 19 0 36-11 47-25 11-15 17-34 17-55 0-21-6-40-17-55-11-15-28-25-47-25-19 0-36 11-47 25-4 5-7 7-10 7-4 0-7-3-7-7l0-121c0-9 7-16 16-16l121 0c4 0 7 3 7 7 0 2-2 6-7 10-14 11-25 28-25 47 0 19 11 36 25 47 15 11 34 17 55 17 21 0 40-6 55-17 15-11 25-28 25-47 0-20-11-36-25-47-5-4-7-8-7-10 0-4 3-7 7-7l57 0c9 0 16 7 16 16l0 121c0 21 18 39 39 39 16 0 29-10 36-20 6-8 14-12 21-12 7 0 15 4 21 12 7 9 11 21 11 36 0 15-4 27-11 36-6 8-14 12-21 12-7 0-15-4-21-12-7-10-20-20-36-20-21 0-39 17-39 39l0 57c0 9-7 16-16 16l-57 0c-21 0-39 17-39 39 0 16 10 29 20 36 8 6 12 14 12 21 0 7-4 15-12 21-9 6-21 11-36 11-14 0-27-4-36-11z"/>
<glyph glyph-name="shield" unicode="&#57360;" d="M269 475c-8 3-17 3-25 0l-177-75c-11-5-19-16-19-28 1-94 39-260 195-334 8-4 18-4 26 0 156 74 195 240 195 334 0 12-7 23-19 28l-176 75z m-38 29c16 7 34 7 50 0l177-75c22-9 38-31 38-57 0-99-41-281-214-363-16-8-36-8-52 0-173 82-213 264-214 363 0 26 16 48 38 57z"/>
<glyph glyph-name="sitemap" unicode="&#57361;" d="M284 427c8 0 15-7 15-15l0-56c0-8-7-15-15-15l-56 0c-8 0-15 7-15 15l0 56c0 8 7 15 15 15z m-56-114l14 0 0-43-142 0c-24 0-43-19-43-42l0-29-14 0c-24 0-43-19-43-43l0-56c0-24 19-43 43-43l57 0c23 0 42 19 42 43l0 56c0 24-19 43-42 43l-15 0 0 29c0 7 7 14 15 14l142 0 0-43-14 0c-24 0-43-19-43-43l0-56c0-24 19-43 43-43l56 0c24 0 43 19 43 43l0 56c0 24-19 43-43 43l-14 0 0 43 142 0c8 0 15-7 15-14l0-29-15 0c-23 0-42-19-42-43l0-56c0-24 19-43 42-43l57 0c24 0 43 19 43 43l0 56c0 24-19 43-43 43l-14 0 0 29c0 23-19 42-43 42l-142 0 0 43 14 0c24 0 43 19 43 43l0 56c0 24-19 43-43 43l-56 0c-24 0-43-19-43-43l0-56c0-24 19-43 43-43z m-185-142l57 0c7 0 14-7 14-15l0-56c0-8-7-15-14-15l-57 0c-8 0-15 7-15 15l0 56c0 8 7 15 15 15z m185 0l56 0c8 0 15-7 15-15l0-56c0-8-7-15-15-15l-56 0c-8 0-15 7-15 15l0 56c0 8 7 15 15 15z m184 0l57 0c8 0 15-7 15-15l0-56c0-8-7-15-15-15l-57 0c-7 0-14 7-14 15l0 56c0 8 7 15 14 15z"/>
<glyph glyph-name="sliders" unicode="&#57362;" d="M0 96c0-9 7-16 16-16l66 0c7-37 39-64 78-64 39 0 71 27 78 64l258 0c9 0 16 7 16 16 0 9-7 16-16 16l-258 0c-7 36-39 64-78 64-39 0-71-28-78-64l-66 0c-9 0-16-7-16-16z m112 0c0 27 21 48 48 48 27 0 48-21 48-48 0-27-21-48-48-48-27 0-48 21-48 48z m192 160c0 27 21 48 48 48 27 0 48-21 48-48 0-27-21-48-48-48-27 0-48 21-48 48z m48 80c-39 0-71-28-78-64l-258 0c-9 0-16-7-16-16 0-9 7-16 16-16l258 0c7-37 39-64 78-64 39 0 71 27 78 64l66 0c9 0 16 7 16 16 0 9-7 16-16 16l-66 0c-7 36-39 64-78 64z m-160 32c-27 0-48 21-48 48 0 27 21 48 48 48 27 0 48-21 48-48 0-27-21-48-48-48z m78 64c-7 36-39 64-78 64-39 0-71-28-78-64l-98 0c-9 0-16-7-16-16 0-9 7-16 16-16l98 0c7-37 39-64 78-64 39 0 71 27 78 64l226 0c9 0 16 7 16 16 0 9-7 16-16 16z"/>
<glyph glyph-name="square-chevron-down" unicode="&#57363;" d="M416 64c18 0 32 14 32 32l0 320c0 18-14 32-32 32l-320 0c-18 0-32-14-32-32l0-320c0-18 14-32 32-32z m64 32c0-35-29-64-64-64l-320 0c-35 0-64 29-64 64l0 320c0 35 29 64 64 64l320 0c35 0 64-29 64-64z m-235 69l-112 112c-6 6-6 16 0 22 6 6 16 6 22 0l101-100 101 100c6 6 16 6 22 0 7-6 7-16 0-22l-112-112c-6-7-16-7-22 0z"/>
<glyph glyph-name="square-chevron-left" unicode="&#57364;" d="M64 96c0-18 14-32 32-32l320 0c18 0 32 14 32 32l0 320c0 18-14 32-32 32l-320 0c-18 0-32-14-32-32z m32-64c-35 0-64 29-64 64l0 320c0 35 29 64 64 64l320 0c35 0 64-29 64-64l0-320c0-35-29-64-64-64z m69 235l112 112c6 6 16 6 22 0 7-6 7-16 0-22l-100-101 100-101c7-6 7-16 0-22-6-7-16-7-22 0l-112 112c-6 6-6 16 0 22z"/>
<glyph glyph-name="square-chevron-right" unicode="&#57365;" d="M448 416c0 18-14 32-32 32l-320 0c-18 0-32-14-32-32l0-320c0-18 14-32 32-32l320 0c18 0 32 14 32 32z m-32 64c35 0 64-29 64-64l0-320c0-35-29-64-64-64l-320 0c-35 0-64 29-64 64l0 320c0 35 29 64 64 64z m-69-235l-112-112c-6-7-16-7-22 0-6 6-6 16 0 22l100 101-100 101c-6 6-6 16 0 22 6 6 16 6 22 0l112-112c7-6 7-16 0-22z"/>
<glyph glyph-name="square-chevron-up" unicode="&#57366;" d="M96 448c-18 0-32-14-32-32l0-320c0-18 14-32 32-32l320 0c18 0 32 14 32 32l0 320c0 18-14 32-32 32z m-64-32c0 35 29 64 64 64l320 0c35 0 64-29 64-64l0-320c0-35-29-64-64-64l-320 0c-35 0-64 29-64 64z m235-69l112-112c7-6 7-16 0-22-6-7-16-7-22 0l-101 100-101-100c-6-7-16-7-22 0-6 6-6 16 0 22l112 112c6 6 16 6 22 0z"/>
<glyph glyph-name="star" unicode="&#57367;" d="M201 334l55 112 54-112c5-9 13-15 22-16l122-18-89-88c-6-7-9-16-8-25l21-124-109 58c-8 5-18 5-27 0l-108-58 20 124c2 9-1 18-8 25l-88 88 122 18c9 1 17 7 21 16z m177-303c7-4 16-3 22 2 7 4 10 12 9 20l-24 139 99 98c6 5 8 14 6 21-3 8-10 14-18 15l-136 20-61 126c-3 7-11 12-19 12-8 0-16-5-19-12l-61-126-136-20c-8-1-15-7-18-15-2-7 0-16 6-21l98-98-23-139c-1-8 2-16 9-20 6-5 15-6 22-2l122 65 122-65z"/>
<glyph glyph-name="thumbtack" unicode="&#57368;" d="M184 477l-12-156c-1-10-6-19-14-24-27-19-47-47-56-80l-6-25 144 0 0 96c0 9 7 16 16 16 9 0 16-7 16-16l0-96 144 0-6 25c-8 33-29 61-56 80-8 5-13 14-14 24l-12 156c0 1 0 2 0 3l-144 0c0-1 0-2 0-3z m56-317l-144 0c-10 0-19 4-25 12-6 8-8 18-6 28l6 25c11 41 36 75 69 98l10 125 2 32-24 0c-3 0-6 1-8 2-5 3-8 8-8 14 0 9 7 16 16 16l256 0c9 0 16-7 16-16 0-6-3-11-8-14-2-1-5-2-8-2l-24 0 3-32 9-125c33-23 59-57 69-98l6-25c2-10 0-20-6-28-6-8-15-12-25-12l-144 0 0-144c0-9-7-16-16-16-9 0-16 7-16 16z"/>
<glyph glyph-name="toggle-off" unicode="&#57369;" d="M370 370c63 0 114-51 114-114 0-63-51-114-114-114l-228 0c-63 0-114 51-114 114 0 63 51 114 114 114z m142-114c0 79-64 142-142 142l-228 0c-78 0-142-63-142-142 0-79 64-142 142-142l228 0c78 0 142 63 142 142z m-313 0c0-31-25-57-57-57-31 0-57 26-57 57 0 31 26 57 57 57 32 0 57-26 57-57z m-142 0c0-47 38-85 85-85 47 0 86 38 86 85 0 47-39 85-86 85-47 0-85-38-85-85z"/>
<glyph glyph-name="toggle-on" unicode="&#57370;" d="M142 370c-63 0-114-51-114-114 0-63 51-114 114-114l228 0c63 0 114 51 114 114 0 63-51 114-114 114z m-142-114c0 79 64 142 142 142l228 0c78 0 142-63 142-142 0-79-64-142-142-142l-228 0c-78 0-142 63-142 142z m427 0c0 31-26 57-57 57-32 0-57-26-57-57 0-31 25-57 57-57 31 0 57 26 57 57z m-143 0c0 47 39 85 86 85 47 0 85-38 85-85 0-47-38-85-85-85-47 0-86 38-86 85z"/>
<glyph glyph-name="trash" unicode="&#57371;" d="M210 480l92 0c6 0 11-3 14-8l15-24-150 0 15 24c3 5 8 8 14 8z m159-32l-26 41c-9 14-24 23-41 23l-92 0c-17 0-32-9-41-23l-26-41-95 0c-9 0-16-7-16-16 0-9 7-16 16-16l18 0 26-357c2-33 30-59 64-59l200 0c34 0 62 26 64 59l26 357 18 0c9 0 16 7 16 16 0 9-7 16-16 16z m45-32l-26-354c-1-17-15-30-32-30l-200 0c-17 0-31 13-32 30l-26 354z"/>
<glyph glyph-name="trash-can" unicode="&#57372;" d="M196 472l-15-24 150 0-15 24c-3 5-8 8-14 8l-92 0c-6 0-11-3-14-8z m147 17l26-41 95 0c9 0 16-7 16-16 0-9-7-16-16-16l-16 0 0-336c0-44-36-80-80-80l-224 0c-44 0-80 36-80 80l0 336-16 0c-9 0-16 7-16 16 0 9 7 16 16 16l95 0 26 41c9 14 24 23 41 23l92 0c17 0 32-9 41-23z m-247-73l0-336c0-27 22-48 48-48l224 0c27 0 48 21 48 48l0 336z m80-80l0-224c0-9-7-16-16-16-9 0-16 7-16 16l0 224c0 9 7 16 16 16 9 0 16-7 16-16z m96 0l0-224c0-9-7-16-16-16-9 0-16 7-16 16l0 224c0 9 7 16 16 16 9 0 16-7 16-16z m96 0l0-224c0-9-7-16-16-16-9 0-16 7-16 16l0 224c0 9 7 16 16 16 9 0 16-7 16-16z"/>
<glyph glyph-name="triangle-exclamation" unicode="&#57373;" d="M35 92c-2-3-3-6-3-10 0-10 8-18 18-18l412 0c10 0 18 8 18 18 0 4-1 7-2 10l-201 344c-5 7-13 12-21 12-8 0-16-5-20-12z m-28 16l201 344c10 17 28 28 48 28 20 0 38-11 48-28l201-344c5-8 7-17 7-26 0-27-23-50-50-50l-412 0c-27 0-50 23-50 50 0 9 2 18 7 26z m249 244c9 0 16-7 16-16l0-128c0-9-7-16-16-16-9 0-16 7-16 16l0 128c0 9 7 16 16 16z m-24-224c0 13 11 24 24 24 13 0 24-11 24-24 0-13-11-24-24-24-13 0-24 11-24 24z"/>
<glyph glyph-name="upload" unicode="&#57374;" d="M272 457l0-313c0-9-7-16-16-16-9 0-16 7-16 16l0 313-101-100c-6-7-16-7-22 0-6 6-6 16 0 22l128 128c6 7 16 7 22 0l128-128c7-6 7-16 0-22-6-7-16-7-22 0z m-64-297l-144 0c-18 0-32-14-32-32l0-64c0-18 14-32 32-32l384 0c18 0 32 14 32 32l0 64c0 18-14 32-32 32l-144 0 0 32 144 0c35 0 64-29 64-64l0-64c0-35-29-64-64-64l-384 0c-35 0-64 29-64 64l0 64c0 35 29 64 64 64l144 0z m176-64c0 13 11 24 24 24 13 0 24-11 24-24 0-13-11-24-24-24-13 0-24 11-24 24z"/>
<glyph glyph-name="user" unicode="&#57375;" d="M352 384c0 53-43 96-96 96-53 0-96-43-96-96 0-53 43-96 96-96 53 0 96 43 96 96z m-224 0c0 71 57 128 128 128 71 0 128-57 128-128 0-71-57-128-128-128-71 0-128 57-128 128z m-64-352l384 0c-1 80-66 144-146 144l-92 0c-80 0-145-64-146-144z m-32-2c0 98 80 178 178 178l92 0c98 0 178-80 178-178 0-17-13-30-30-30l-388 0c-17 0-30 13-30 30z"/>
<glyph glyph-name="users" unicode="&#57376;" d="M77 397c0 21 17 38 38 38 21 0 39-17 39-38 0-21-18-39-39-39-21 0-38 18-38 39z m102 0c0 35-28 64-64 64-35 0-64-29-64-64 0-36 29-64 64-64 36 0 64 28 64 64z m77-64c28 0 51-23 51-51 0-29-23-52-51-52-28 0-51 23-51 52 0 28 23 51 51 51z m0-128c42 0 77 34 77 77 0 42-35 76-77 76-42 0-77-34-77-76 0-43 35-77 77-77z m-47-51l94 0c43 0 79-34 81-77l-256 0c2 43 38 77 81 77z m0 25c-59 0-107-48-107-106 0-12 10-22 22-22l264 0c12 0 22 10 22 22 0 58-48 106-107 106z m201 256c21 0 38-17 38-38 0-21-17-39-38-39-22 0-39 18-39 39 0 21 17 38 39 38z m0-102c35 0 64 28 64 64 0 35-29 64-64 64-36 0-64-29-64-64 0-36 28-64 64-64z m12-51c36 0 64-29 64-64 0-7 6-13 13-13 7 0 13 6 13 13 0 49-40 89-90 89l-67 0c2-8 3-17 3-25z m-268 0c0 8 1 17 3 25l-67 0c-50 0-90-40-90-89 0-7 6-13 13-13 7 0 13 6 13 13 0 35 28 64 64 64z"/>
<glyph glyph-name="volume-high" unicode="&#57377;" d="M121 310l109 97 0-302-109 97c-2 2-5 3-8 3l-68 0c-11 0-19 8-19 19l0 64c0 11 8 19 19 19l68 0c3 0 6 1 8 3z m111 125c-6 0-11-2-16-6l-108-96-63 0c-25 0-45-20-45-45l0-64c0-25 20-45 45-45l63 0 108-96 9 9-9-9c5-4 10-6 16-6 13 0 24 10 24 24l0 310c0 14-11 24-24 24z m96-118c-6 5-14 4-18-2-4-6-3-14 2-18 13-9 21-24 21-41 0-17-8-32-21-41-5-4-6-12-2-18 4-6 12-7 18-2 18 14 30 36 30 61 0 25-12 47-30 61z m33 56c-4-6-3-14 2-18 29-24 47-59 47-99 0-40-18-75-47-99-5-4-6-12-2-18 5-5 13-6 18-1 34 28 56 70 56 118 0 48-22 90-56 118-5 5-13 4-18-1z m70 59c-6 4-14 4-18-2-5-5-4-13 1-18 44-37 72-93 72-156 0-63-28-119-72-156-5-5-6-13-1-18 4-6 12-6 18-2 49 43 81 106 81 176 0 70-32 133-81 176z"/>
<glyph glyph-name="volume-low" unicode="&#57378;" d="M184 324l136 121 0-378-136 121c-3 3-7 4-11 4l-85 0c-13 0-24 11-24 24l0 80c0 13 11 24 24 24l85 0c4 0 8 1 11 4z m138 156c-7 0-14-3-20-8l-135-120-79 0c-31 0-56-25-56-56l0-80c0-31 25-56 56-56l79 0 135-121 11 12-11-12c6-4 13-7 20-7 17 0 30 13 30 30l0 388c0 17-13 30-30 30z m120-147c-7 5-17 4-23-3-5-8-4-18 3-23 16-12 26-30 26-51 0-21-10-40-26-51-7-6-8-16-3-23 6-7 16-8 23-3 23 18 38 46 38 77 0 31-15 59-38 77z"/>
<glyph glyph-name="volume-off" unicode="&#57379;" d="M384 445l-136-121c-3-3-7-4-11-4l-85 0c-13 0-24-11-24-24l0-80c0-13 11-24 24-24l85 0c4 0 8-1 11-4l136-121z m-18 27c6 5 13 8 20 8 17 0 30-13 30-30l0-388c0-17-13-30-30-30-7 0-14 3-20 7l11 12-11-12-135 121-79 0c-31 0-56 25-56 56l0 80c0 31 25 56 56 56l79 0z"/>
<glyph glyph-name="volume-xmark" unicode="&#57380;" d="M135 316l121 108 0-336-121 108c-3 2-6 3-10 3l-75 0c-12 0-22 10-22 21l0 72c0 11 10 21 22 21l75 0c4 0 7 1 10 3z m123 139c-7 0-13-2-18-7l-120-107-70 0c-28 0-50-22-50-49l0-72c0-27 22-49 50-49l70 0 120-107 10 10-10-10c5-5 11-7 18-7 15 0 26 12 26 26l0 346c0 14-11 26-26 26z m108-118c-6 6-15 6-20 0-6-5-6-14 0-20l61-61-61-61c-6-6-6-15 0-20 5-6 14-6 20 0l61 61 61-61c5-6 14-6 20 0 5 5 5 14 0 20l-61 61 61 61c5 6 5 15 0 20-6 6-15 6-20 0l-61-61z"/>
<glyph glyph-name="wifi" unicode="&#57381;" d="M22 313c60 60 143 97 234 97 91 0 174-37 234-97 5-5 13-5 18 0 5 5 5 13 0 18-65 65-154 104-252 104-98 0-187-39-252-104-5-5-5-13 0-18 5-5 13-5 18 0z m234-31c56 0 108-23 145-60 5-5 13-5 18 0 5 5 5 13 0 18-42 41-99 67-163 67-64 0-121-26-163-67-5-5-5-13 0-18 5-5 13-5 18 0 37 37 89 60 145 60z m0-128c14 0 26-12 26-26 0-14-12-26-26-26-14 0-26 12-26 26 0 14 12 26 26 26z m0-77c28 0 51 23 51 51 0 28-23 51-51 51-28 0-51-23-51-51 0-28 23-51 51-51z"/>
<glyph glyph-name="wifi-slash" unicode="&#57382;" d="M3 456c4 5 12 6 18 2l486-384c6-4 7-12 2-18-4-6-12-6-18-2l-486 384c-6 4-7 12-2 18z m315-184l-43 34c56-4 106-29 144-66 5-5 5-13 0-18-5-5-13-5-18 0-23 23-51 40-83 50z m-151-11c-21-10-39-23-56-39-5-5-13-5-18 0-5 5-5 13 0 18 16 15 33 28 52 39l22-18z m-6 135l-24 19c37 13 77 20 119 20 98 0 187-39 252-104 5-5 5-13 0-18-5-5-13-5-18 0-60 60-143 97-234 97-33 0-65-5-95-14z m-122-34l21-16c-14-10-26-21-38-33-5-5-13-5-18 0-5 5-5 13 0 18 11 11 23 22 35 31z m175-264c-11 15-13 34-5 51 7 17 23 29 41 31 19 1 37-7 47-22 12-15 14-34 6-51-7-17-23-29-42-31-18-1-36 7-47 22z m68 30c0 14-12 26-26 26-14 0-26-12-26-26 0-14 12-26 26-26 14 0 26 12 26 26z"/>
<glyph glyph-name="wrench" unicode="&#57383;" d="M480 352c0 11-1 21-4 31l-49-49c-9-9-21-14-34-14l-25 0c-26 0-48 21-48 48l0 25c0 13 5 25 14 34l49 49c-10 3-20 4-31 4-71 0-128-57-128-128 0-9 1-18 3-27 3-15-1-32-13-45l-168-167c-9-9-14-21-14-34 0-26 21-47 47-47 13 0 25 5 34 14l168 168c12 12 29 16 44 13 9-2 18-3 27-3 71 0 128 57 128 128z m32 0c0-88-72-160-160-160-11 0-23 1-33 3-6 2-12 0-16-4l-168-168c-15-15-35-23-56-23-43 0-79 35-79 79 0 21 8 41 23 56l168 168c4 4 6 10 5 16-3 10-4 22-4 33 0 88 72 160 160 160 25 0 48-6 69-16 10-4 11-16 4-23l-68-68c-3-3-5-7-5-12l0-25c0-9 7-16 16-16l25 0c5 0 9 2 12 5l68 68c7 7 19 5 23-4 10-21 16-44 16-69z m-424-248c9 0 16-7 16-16 0-9-7-16-16-16-9 0-16 7-16 16 0 9 7 16 16 16z"/>
<glyph glyph-name="xmark" unicode="&#57384;" d="M389 101c6-6 16-6 22 0 6 6 6 16 0 22l-132 133 132 132c6 7 6 17 0 23-6 6-16 6-22 0l-133-132-132 132c-7 6-17 6-23 0-6-6-6-16 0-23l132-132-132-133c-6-6-6-16 0-22 6-6 16-6 23 0l132 132z"/>
<glyph glyph-name="xmark-large" unicode="&#57385;" d="M453 475c6 6 16 6 22 0 7-6 7-16 0-22l-196-197 196-197c7-6 7-16 0-22-6-7-16-7-22 0l-197 196-197-196c-6-7-16-7-22 0-6 6-6 16 0 22l196 197-196 197c-6 6-6 16 0 22 6 6 16 6 22 0l197-196z"/>
</font>
</defs>
</svg>
